Today is a free download without charge Download

Лиссабонские тайны / Mistérios de Lisboa / Mysteries of Lisbon (Рауль Руис / Raoul Ruiz) [2010, Франция, Португалия, Мелодрама, приключения, BDRip 720p] MVO (Синема Престиж) + Sub Rus + SUB Por + Original Por

Reply to topic
 
Author
Message

Omen ®

Longevity: 8 years 5 months

Posts: 181087

Торрент-статистика

Post 04-May-2013 07:47

[Quote]

Лиссабонские тайны / Mistérios de Lisboa / Mysteries of Lisbon
Страна: Франция, Португалия
Студия: Clap Filmes, Alfama Films, Instituto do Cinema e do Audiovisual (ICA)
Жанр: Мелодрама, приключения
Год выпуска: 2010
Продолжительность: 01:58:25 + 02:27:52
Перевод: Профессиональный (многоголосый закадровый) Синема Престиж
Cубтитры: русские, португальские
Оригинальная аудиодорожка: португальский
Режиссер: Рауль Руис / Raoul Ruiz
В ролях: Андриану Лус (отец Диниш), Леа Сейду (Бланш де Монфор), Мельвиль Пупо (Эрнесто Лакроз), Мария Жоао Бастос (Анжела де Лима), Клотильда Эсме (Элиза де Монфор), Рикардо Перейра (Альберто де Магальяэш)
Описание: "Лиссабонские тайны" переносят нас в XIX век и погружают в настоящий вихрь приключений, роковых совпадений, тайн, преступлений, неистовых страстей, страшной мести и безумной любви. В Лиссабоне, полном интриг и секретов, мы познакомимся с людьми, так или иначе причастными к судьбе главного героя, Педро да Силвы. Среди них мужественный священник, не отступающий перед опасностями, красавица графиня, потерявшая разум от ревности, удачливый делец, наживший состояние на кровавом морском разбое. У каждого невероятная судьба, и их жизненные пути пересекаются самым непостижимым образом...

Сэмпл 1 часть
Сэмпл 2 часть
Тип релиза: BDRip 720p
Контейнер: MKV
Видео: AVC 1280x720 (16:9) 24.0fps Bit rate 6000Kbps
Аудио 1: AC3 48.0KHz 6ch 384 Kbps MVO rus
Аудио 2: AC3 48.0KHz 6ch 448 Kbps port

MediaInfo

General
Complete name : E:\torrent\misterios.de.lisboa.720p.h264\misterios.de.lisboa.720p.h264_part1.mkv
Format : Matroska
File size : 5.63 GiB
Duration : 1h 58mn
Overall bit rate : 6 802 Kbps
Encoded date : UTC 2013-05-03 21:20:14
Writing application : mkvmerge v5.7.0 ('The Whirlwind') built on Jul 8 2012 20:08:51
Writing library : libebml v1.2.3 + libmatroska v1.3.0
Video
ID : 1
Format : AVC
Format/Info : Advanced Video Codec
Format profile : [email protected]
Format settings, CABAC : Yes
Format settings, ReFrames : 8 frames
Format settings, GOP : N=1
Muxing mode : Container [email protected]
Codec ID : V_MPEG4/ISO/AVC
Duration : 1h 58mn
Bit rate : 6 000 Kbps
Width : 1 280 pixels
Height : 720 pixels
Display aspect ratio : 16:9
Frame rate : 24.000 fps
Color space : YUV
Chroma subsampling : 4:2:0
Bit depth : 8 bits
Scan type : Progressive
Bits/(Pixel*Frame) : 0.271
Stream size : 4.83 GiB (86%)
Title : misterios.de.lisboa.720p.h264_part1
Writing library : x264 core 106 r1732 b20059a
Encoding settings : cabac=1 / ref=8 / deblock=1:-1:-1 / analyse=0x3:0x133 / me=umh / subme=9 / psy=1 / psy_rd=1.00:0.15 / mixed_ref=1 / me_range=16 / chroma_me=1 / trellis=2 / 8x8dct=1 / cqm=0 / deadzone=21,11 / fast_pskip=1 / chroma_qp_offset=-3 / threads=3 / sliced_threads=0 / nr=0 / decimate=1 / interlaced=0 / constrained_intra=0 / bframes=3 / b_pyramid=2 / b_adapt=2 / b_bias=0 / direct=3 / weightb=1 / open_gop=0 / weightp=2 / keyint=250 / keyint_min=24 / scenecut=40 / intra_refresh=0 / rc_lookahead=60 / rc=2pass / mbtree=1 / bitrate=6000 / ratetol=1.0 / qcomp=0.60 / qpmin=10 / qpmax=51 / qpstep=4 / cplxblur=20.0 / qblur=0.5 / vbv_maxrate=50000 / vbv_bufsize=50000 / ip_ratio=1.40 / aq=1:1.00 / nal_hrd=none
Audio #1
ID : 2
Format : AC-3
Format/Info : Audio Coding 3
Mode extension : CM (complete main)
Codec ID : A_AC3
Duration : 1h 58mn
Bit rate mode : Constant
Bit rate : 384 Kbps
Channel(s) : 6 channels
Channel positions : Front: L C R, Side: L R, LFE
Sampling rate : 48.0 KHz
Bit depth : 16 bits
Stream size : 325 MiB (6%)
Title : misterios.de.lisboa.720p.h264_part1_rus
Language : Russian
Audio #2
ID : 3
Format : AC-3
Format/Info : Audio Coding 3
Mode extension : CM (complete main)
Codec ID : A_AC3
Duration : 1h 58mn
Bit rate mode : Constant
Bit rate : 448 Kbps
Channel(s) : 6 channels
Channel positions : Front: L C R, Side: L R, LFE
Sampling rate : 48.0 KHz
Bit depth : 16 bits
Stream size : 379 MiB (7%)
Title : misterios.de.lisboa.720p.h264_part1_port
Language : Portuguese
Text #1
ID : 4
Format : UTF-8
Codec ID : S_TEXT/UTF8
Codec ID/Info : UTF-8 Plain Text
Title : misterios.de.lisboa.720p.h264_part1_rus
Language : Russian
Text #2
ID : 5
Format : UTF-8
Codec ID : S_TEXT/UTF8
Codec ID/Info : UTF-8 Plain Text
Title : misterios.de.lisboa.720p.h264_part1_port
Language : Portuguese

Скриншот с названием фильма

Скриншоты

Other forum [Profile] [PM]
Display posts from previous:    
Reply to topic

The time now is: Today 19:31

All times are GMT + 3 Hours



You cannot post new topics in this forum
You cannot reply to topics in this forum
You cannot edit your posts in this forum
You cannot delete your posts in this forum
You cannot vote in polls in this forum
You cannot attach files in this forum
You cannot download files in this forum