Today is a free download without charge Download

The Pogues - The Pogues in Paris: 30th Anniversary Concert at the Olympia [2012, Celtic / Folk rock, Blu-ray]

Reply to topic
 
Author
Message

Omen ®

Longevity: 8 years 4 months

Posts: 181087

Торрент-статистика

Post 04-May-2013 07:47

[Quote]

Жанр: Celtic / Folk rock
Продолжительность: 01:40:25
Год выпуска: 2012

Official Trailer-The Pogues celebrated their 30th anniversary with two sold-out shows in September 2012 at the famous Olympia venue in Paris. The performances were filmed/recorded and directed by Gautier & Leduc. The shows featured the full band line-up of MacGowan, Spider Stacey, Jem Finer, James Fearnley, Andrew Ranken, Phillip Chevron, Terry Woods and Darryl Hunt. Includes spirited renditions of 'A Pair Of Brown Eyes', 'The Sunnyside Of The Street', 'Dirty Old Town and many others.-TRACKLIST:
01. Streams of Whiskey
02. If I Should Fall From Grace With God
03. The Broad Majestic Shannon
04. Greenland Whale Fisheries
05. A Pair of Brown Eyes
06. Tuesday Morning
07. Kitty
08. The Sunnyside of the Street
09. Thousands are Sailing
10. Repeal of the Licensing Laws
11. Lullaby of London
12. The Body of An American
13. Young Ned of the Hill
14. Boys From The County Hell
15. Dirty Old Town
16. Bottle of Smoke
17. The Sicked Bed of Cuchulainn
18. Sally MacLennane
19. Rainy Night in Soho
20. The Irish Rover
21. Star of the County Down
22. Poor Pady
23. Fairytale of New York
24. Fiesta

Bonus:
Thousands are Sailing (recorded on 16th December 2006 at The manchester MEN Arena)-Качество: Blu-ray
Контейнер: BDMV
Видео кодек: AVC
Аудио кодек: PCM, DTS-HD
Видео: MPEG-4 AVC Video, 20087 kbps, 1080i, 29,970 fps, 16:9 / High Profile 4.1/
Аудио: Linear PCM, 2.0, 48 kHz, 1536 kbps, 16-bit
Аудио 2: DTS-HD Master Audio, 5.1, 48 kHz, 3008 kbps, 16-bit (DTS Core: 5.1 / 48 kHz / 1509 kbps / 16-bit
)
-

Отчёт MediaInfo / BDInfo

Disc Title: BD_POGUES_NTSCDisc Size: 20 747 651 409 bytesProtection: AACSBD-Java: NoBDInfo: 0.5.8
Notes:
BDINFO HOME: Cinema Squid http://www.cinemasquid.com/blu-ray/tools/bdinfo
INCLUDES FORUMS REPORT FOR: AVS Forum Blu-ray Audio and Video Specifications Thread http://www.avsforum.com/avs-vb/showthread.php?t=1155731
********************PLAYLIST: 00006.MPLS********************
Код:
Total   Video
Title                                                           Codec   Length  Movie Size      Disc Size       Bitrate Bitrate Main Audio Track                          Secondary Audio Track
-----                                                           ------  ------- --------------  --------------  ------- ------- ------------------                        ---------------------
00006.MPLS                                                      AVC     1:40:25 19 794 690 048  20 747 651 409  26,28   20,09   LPCM 2.0 1536Kbps (48kHz/16-bit)          DTS-HD Master 5.1 3008Kbps (48kHz/16-bit)
Код:
DISC INFO:
Disc Title:     BD_POGUES_NTSC
Disc Size:      20 747 651 409 bytes
Protection:     AACS
BD-Java:        No
BDInfo:         0.5.8
PLAYLIST REPORT:
Name:                   00006.MPLS
Length:                 1:40:25.052 (h:m:s.ms)
Size:                   19 794 690 048 bytes
Total Bitrate:          26,28 Mbps
VIDEO:
Codec                   Bitrate             Description
-----                   -------             -----------
MPEG-4 AVC Video        20087 kbps          1080i / 29,970 fps / 16:9 / High Profile 4.1
AUDIO:
Codec                           Language        Bitrate         Description
-----                           --------        -------         -----------
LPCM Audio                      English         1536 kbps       2.0 / 48 kHz / 1536 kbps / 16-bit
DTS-HD Master Audio             English         3008 kbps       5.1 / 48 kHz / 3008 kbps / 16-bit (DTS Core: 5.1 / 48 kHz / 1509 kbps / 16-bit)
FILES:
Name            Time In         Length          Size            Total Bitrate
----            -------         ------          ----            -------------
00005.M2TS      0:00:00.000     1:40:25.052     19 794 690 048  26 283
CHAPTERS:
Number          Time In         Length          Avg Video Rate  Max 1-Sec Rate  Max 1-Sec Time  Max 5-Sec Rate  Max 5-Sec Time  Max 10Sec Rate  Max 10Sec Time  Avg Frame Size  Max Frame Size  Max Frame Time
------          -------         ------          --------------  --------------  --------------  --------------  --------------  --------------  --------------  --------------  --------------  --------------
1               0:00:00.000     0:02:52.172     16 824 kbps     35 030 kbps     00:00:07.607    31 981 kbps     00:00:07.607    24 458 kbps     00:01:39.666    70 157 bytes    608 509 bytes   00:02:51.738
2               0:02:52.172     0:03:07.186     18 632 kbps     32 988 kbps     00:05:01.434    28 020 kbps     00:03:23.469    27 000 kbps     00:04:04.277    77 712 bytes    621 825 bytes   00:03:38.718
3               0:05:59.359     0:02:31.484     19 745 kbps     33 397 kbps     00:08:25.705    28 429 kbps     00:06:30.857    26 486 kbps     00:08:16.729    82 355 bytes    661 043 bytes   00:06:35.528
4               0:08:30.843     0:03:04.851     19 934 kbps     34 177 kbps     00:10:10.276    28 538 kbps     00:11:29.188    27 902 kbps     00:11:24.517    83 142 bytes    694 213 bytes   00:09:41.847
5               0:11:35.695     0:03:02.181     20 312 kbps     32 457 kbps     00:13:51.564    28 246 kbps     00:13:53.966    25 765 kbps     00:13:51.363    84 719 bytes    615 284 bytes   00:13:43.055
6               0:14:37.877     0:03:46.226     18 919 kbps     35 407 kbps     00:17:29.848    28 996 kbps     00:17:16.101    28 020 kbps     00:17:11.096    78 909 bytes    665 716 bytes   00:17:58.610
7               0:18:24.103     0:04:26.265     20 640 kbps     33 230 kbps     00:20:23.755    27 867 kbps     00:18:45.023    26 603 kbps     00:19:13.218    86 086 bytes    665 329 bytes   00:18:43.755
8               0:22:50.369     0:03:25.205     17 348 kbps     32 917 kbps     00:23:37.716    27 406 kbps     00:25:50.215    26 703 kbps     00:24:03.341    72 354 bytes    620 184 bytes   00:23:11.656
9               0:26:15.574     0:03:47.226     20 432 kbps     32 315 kbps     00:28:51.763    28 562 kbps     00:28:31.709    27 360 kbps     00:26:59.184    85 220 bytes    660 804 bytes   00:29:35.907
10              0:30:02.801     0:05:32.331     19 531 kbps     33 028 kbps     00:32:19.804    28 088 kbps     00:33:49.460    26 379 kbps     00:30:35.233    81 460 bytes    662 755 bytes   00:32:23.441
11              0:35:35.133     0:03:23.203     21 804 kbps     32 397 kbps     00:35:57.088    27 512 kbps     00:36:39.697    26 808 kbps     00:36:37.628    90 939 bytes    592 277 bytes   00:35:53.684
12              0:38:58.336     0:03:42.221     21 067 kbps     31 820 kbps     00:39:59.497    27 874 kbps     00:39:55.493    27 045 kbps     00:40:38.969    87 866 bytes    613 268 bytes   00:39:55.092
13              0:42:40.558     0:04:57.296     20 311 kbps     32 517 kbps     00:45:10.240    28 303 kbps     00:44:33.971    26 227 kbps     00:47:20.337    84 715 bytes    665 309 bytes   00:45:07.237
14              0:47:37.854     0:04:18.258     19 337 kbps     33 346 kbps     00:49:20.624    27 671 kbps     00:51:50.841    26 034 kbps     00:51:13.303    80 650 bytes    666 024 bytes   00:48:16.293
15              0:51:56.113     0:02:57.176     19 612 kbps     32 340 kbps     00:54:23.226    28 176 kbps     00:53:54.531    25 290 kbps     00:53:14.624    81 799 bytes    624 790 bytes   00:53:30.707
16              0:54:53.290     0:04:01.741     20 643 kbps     34 345 kbps     00:55:02.866    29 020 kbps     00:58:49.659    26 846 kbps     00:55:07.671    86 097 bytes    684 602 bytes   00:54:57.661
17              0:58:55.031     0:03:35.048     20 674 kbps     30 798 kbps     01:02:20.770    28 223 kbps     00:58:56.532    26 059 kbps     00:58:55.031    86 228 bytes    535 456 bytes   01:01:13.302
18              1:02:30.079     0:04:41.280     21 271 kbps     31 168 kbps     01:06:50.306    28 452 kbps     01:02:34.650    26 555 kbps     01:05:35.298    88 716 bytes    668 012 bytes   01:04:55.758
19              1:07:11.360     0:02:58.011     22 322 kbps     34 555 kbps     01:08:01.477    27 477 kbps     01:08:48.324    27 144 kbps     01:08:43.519    93 101 bytes    696 953 bytes   01:07:20.603
20              1:10:09.371     0:05:49.182     19 185 kbps     34 591 kbps     01:15:37.232    29 621 kbps     01:15:33.262    26 463 kbps     01:12:15.998    80 017 bytes    715 664 bytes   01:15:42.704
21              1:15:58.554     0:04:41.280     20 072 kbps     34 567 kbps     01:16:22.644    28 586 kbps     01:18:22.564    26 855 kbps     01:19:30.365    83 719 bytes    624 647 bytes   01:18:12.220
22              1:20:39.835     0:03:30.210     19 311 kbps     33 896 kbps     01:22:21.803    27 883 kbps     01:22:59.007    26 625 kbps     01:21:39.561    80 545 bytes    661 370 bytes   01:23:21.496
23              1:24:10.045     0:03:07.854     21 527 kbps     31 683 kbps     01:24:30.932    27 519 kbps     01:24:26.928    26 580 kbps     01:26:42.096    89 787 bytes    666 235 bytes   01:24:12.981
24              1:27:17.899     0:05:45.178     21 437 kbps     33 734 kbps     01:30:53.014    27 942 kbps     01:31:39.794    27 482 kbps     01:32:49.997    89 410 bytes    713 148 bytes   01:31:15.236
25              1:33:03.077     0:06:12.872     22 367 kbps     31 153 kbps     01:33:27.268    27 709 kbps     01:36:16.670    26 969 kbps     01:38:39.113    93 291 bytes    601 944 bytes   01:33:27.301
26              1:39:15.950     0:01:09.102     8 596 kbps      18 078 kbps     01:40:05.499    17 100 kbps     01:40:01.729    16 015 kbps     01:39:59.960    35 871 bytes    194 331 bytes   01:40:03.931
STREAM DIAGNOSTICS:
File            PID             Type            Codec           Language                Seconds                 Bitrate                 Bytes           Packets
----            ---             ----            -----           --------                --------------          --------------          -------------   -----
00005.M2TS      4113 (0x1011)   0x1B            AVC                                     6024,952                20 087                  15 128 012 342  82 413 384
00005.M2TS      4352 (0x1100)   0x80            LPCM            eng (English)           6024,952                1 542                   1 161 630 604   7 230 066
00005.M2TS      4353 (0x1101)   0x86            DTS-HD MA       eng (English)           6024,952                3 008                   2 265 576 976   13 252 037
QUICK SUMMARY:
Disc Title: BD_POGUES_NTSCDisc Size: 20 747 651 409 bytesProtection: AACSBD-Java: NoPlaylist: 00006.MPLSSize: 19 794 690 048 bytesLength: 1:40:25.052Total Bitrate: 26,28 MbpsVideo: MPEG-4 AVC Video / 20087 kbps / 1080i / 29,970 fps / 16:9 / High Profile 4.1Audio: English / LPCM Audio / 2.0 / 48 kHz / 1536 kbps / 16-bitAudio: English / DTS-HD Master Audio / 5.1 / 48 kHz / 3008 kbps / 16-bit (DTS Core: 5.1 / 48 kHz / 1509 kbps / 16-bit)
********************PLAYLIST: 00008.MPLS********************
Код:
Total   Video
Title                                                           Codec   Length  Movie Size      Disc Size       Bitrate Bitrate Main Audio Track                          Secondary Audio Track
-----                                                           ------  ------- --------------  --------------  ------- ------- ------------------                        ---------------------
00008.MPLS                                                      AVC     1:40:25 19 794 690 048  20 747 651 409  26,28   20,09   LPCM 2.0 1536Kbps (48kHz/16-bit)          DTS-HD Master 5.1 3008Kbps (48kHz/16-bit)
Код:
DISC INFO:
Disc Title:     BD_POGUES_NTSC
Disc Size:      20 747 651 409 bytes
Protection:     AACS
BD-Java:        No
BDInfo:         0.5.8
PLAYLIST REPORT:
Name:                   00008.MPLS
Length:                 1:40:25.052 (h:m:s.ms)
Size:                   19 794 690 048 bytes
Total Bitrate:          26,28 Mbps
VIDEO:
Codec                   Bitrate             Description
-----                   -------             -----------
MPEG-4 AVC Video        20087 kbps          1080i / 29,970 fps / 16:9 / High Profile 4.1
AUDIO:
Codec                           Language        Bitrate         Description
-----                           --------        -------         -----------
LPCM Audio                      English         1536 kbps       2.0 / 48 kHz / 1536 kbps / 16-bit
DTS-HD Master Audio             English         3008 kbps       5.1 / 48 kHz / 3008 kbps / 16-bit (DTS Core: 5.1 / 48 kHz / 1509 kbps / 16-bit)
FILES:
Name            Time In         Length          Size            Total Bitrate
----            -------         ------          ----            -------------
00005.M2TS      0:00:00.000     1:40:25.052     19 794 690 048  26 283
CHAPTERS:
Number          Time In         Length          Avg Video Rate  Max 1-Sec Rate  Max 1-Sec Time  Max 5-Sec Rate  Max 5-Sec Time  Max 10Sec Rate  Max 10Sec Time  Avg Frame Size  Max Frame Size  Max Frame Time
------          -------         ------          --------------  --------------  --------------  --------------  --------------  --------------  --------------  --------------  --------------  --------------
1               0:00:00.000     0:02:52.172     16 824 kbps     35 030 kbps     00:00:07.607    31 981 kbps     00:00:07.607    24 458 kbps     00:01:39.666    70 157 bytes    608 509 bytes   00:02:51.738
2               0:02:52.172     0:03:07.186     18 632 kbps     32 988 kbps     00:05:01.434    28 020 kbps     00:03:23.469    27 000 kbps     00:04:04.277    77 712 bytes    621 825 bytes   00:03:38.718
3               0:05:59.359     0:02:31.484     19 745 kbps     33 397 kbps     00:08:25.705    28 429 kbps     00:06:30.857    26 486 kbps     00:08:16.729    82 355 bytes    661 043 bytes   00:06:35.528
4               0:08:30.843     0:03:04.851     19 934 kbps     34 177 kbps     00:10:10.276    28 538 kbps     00:11:29.188    27 902 kbps     00:11:24.517    83 142 bytes    694 213 bytes   00:09:41.847
5               0:11:35.695     0:03:02.181     20 312 kbps     32 457 kbps     00:13:51.564    28 246 kbps     00:13:53.966    25 765 kbps     00:13:51.363    84 719 bytes    615 284 bytes   00:13:43.055
6               0:14:37.877     0:03:46.226     18 919 kbps     35 407 kbps     00:17:29.848    28 996 kbps     00:17:16.101    28 020 kbps     00:17:11.096    78 909 bytes    665 716 bytes   00:17:58.610
7               0:18:24.103     0:04:26.265     20 640 kbps     33 230 kbps     00:20:23.755    27 867 kbps     00:18:45.023    26 603 kbps     00:19:13.218    86 086 bytes    665 329 bytes   00:18:43.755
8               0:22:50.369     0:03:25.205     17 348 kbps     32 917 kbps     00:23:37.716    27 406 kbps     00:25:50.215    26 703 kbps     00:24:03.341    72 354 bytes    620 184 bytes   00:23:11.656
9               0:26:15.574     0:03:47.226     20 432 kbps     32 315 kbps     00:28:51.763    28 562 kbps     00:28:31.709    27 360 kbps     00:26:59.184    85 220 bytes    660 804 bytes   00:29:35.907
10              0:30:02.801     0:05:32.331     19 531 kbps     33 028 kbps     00:32:19.804    28 088 kbps     00:33:49.460    26 379 kbps     00:30:35.233    81 460 bytes    662 755 bytes   00:32:23.441
11              0:35:35.133     0:03:23.203     21 804 kbps     32 397 kbps     00:35:57.088    27 512 kbps     00:36:39.697    26 808 kbps     00:36:37.628    90 939 bytes    592 277 bytes   00:35:53.684
12              0:38:58.336     0:03:42.221     21 067 kbps     31 820 kbps     00:39:59.497    27 874 kbps     00:39:55.493    27 045 kbps     00:40:38.969    87 866 bytes    613 268 bytes   00:39:55.092
13              0:42:40.558     0:04:57.296     20 311 kbps     32 517 kbps     00:45:10.240    28 303 kbps     00:44:33.971    26 227 kbps     00:47:20.337    84 715 bytes    665 309 bytes   00:45:07.237
14              0:47:37.854     0:04:18.258     19 337 kbps     33 346 kbps     00:49:20.624    27 671 kbps     00:51:50.841    26 034 kbps     00:51:13.303    80 650 bytes    666 024 bytes   00:48:16.293
15              0:51:56.113     0:02:57.176     19 612 kbps     32 340 kbps     00:54:23.226    28 176 kbps     00:53:54.531    25 290 kbps     00:53:14.624    81 799 bytes    624 790 bytes   00:53:30.707
16              0:54:53.290     0:04:01.741     20 643 kbps     34 345 kbps     00:55:02.866    29 020 kbps     00:58:49.659    26 846 kbps     00:55:07.671    86 097 bytes    684 602 bytes   00:54:57.661
17              0:58:55.031     0:03:35.048     20 674 kbps     30 798 kbps     01:02:20.770    28 223 kbps     00:58:56.532    26 059 kbps     00:58:55.031    86 228 bytes    535 456 bytes   01:01:13.302
18              1:02:30.079     0:04:41.280     21 271 kbps     31 168 kbps     01:06:50.306    28 452 kbps     01:02:34.650    26 555 kbps     01:05:35.298    88 716 bytes    668 012 bytes   01:04:55.758
19              1:07:11.360     0:02:58.011     22 322 kbps     34 555 kbps     01:08:01.477    27 477 kbps     01:08:48.324    27 144 kbps     01:08:43.519    93 101 bytes    696 953 bytes   01:07:20.603
20              1:10:09.371     0:05:49.182     19 185 kbps     34 591 kbps     01:15:37.232    29 621 kbps     01:15:33.262    26 463 kbps     01:12:15.998    80 017 bytes    715 664 bytes   01:15:42.704
21              1:15:58.554     0:04:41.280     20 072 kbps     34 567 kbps     01:16:22.644    28 586 kbps     01:18:22.564    26 855 kbps     01:19:30.365    83 719 bytes    624 647 bytes   01:18:12.220
22              1:20:39.835     0:03:30.210     19 311 kbps     33 896 kbps     01:22:21.803    27 883 kbps     01:22:59.007    26 625 kbps     01:21:39.561    80 545 bytes    661 370 bytes   01:23:21.496
23              1:24:10.045     0:03:07.854     21 527 kbps     31 683 kbps     01:24:30.932    27 519 kbps     01:24:26.928    26 580 kbps     01:26:42.096    89 787 bytes    666 235 bytes   01:24:12.981
24              1:27:17.899     0:05:45.178     21 437 kbps     33 734 kbps     01:30:53.014    27 942 kbps     01:31:39.794    27 482 kbps     01:32:49.997    89 410 bytes    713 148 bytes   01:31:15.236
25              1:33:03.077     0:06:12.872     22 367 kbps     31 153 kbps     01:33:27.268    27 709 kbps     01:36:16.670    26 969 kbps     01:38:39.113    93 291 bytes    601 944 bytes   01:33:27.301
26              1:39:15.950     0:01:09.102     8 596 kbps      18 078 kbps     01:40:05.499    17 100 kbps     01:40:01.729    16 015 kbps     01:39:59.960    35 871 bytes    194 331 bytes   01:40:03.931
STREAM DIAGNOSTICS:
File            PID             Type            Codec           Language                Seconds                 Bitrate                 Bytes           Packets
----            ---             ----            -----           --------                --------------          --------------          -------------   -----
00005.M2TS      4113 (0x1011)   0x1B            AVC                                     6024,952                20 087                  15 128 012 342  82 413 384
00005.M2TS      4352 (0x1100)   0x80            LPCM            eng (English)           6024,952                1 542                   1 161 630 604   7 230 066
00005.M2TS      4353 (0x1101)   0x86            DTS-HD MA       eng (English)           6024,952                3 008                   2 265 576 976   13 252 037
QUICK SUMMARY:
Disc Title: BD_POGUES_NTSCDisc Size: 20 747 651 409 bytesProtection: AACSBD-Java: NoPlaylist: 00008.MPLSSize: 19 794 690 048 bytesLength: 1:40:25.052Total Bitrate: 26,28 MbpsVideo: MPEG-4 AVC Video / 20087 kbps / 1080i / 29,970 fps / 16:9 / High Profile 4.1Audio: English / LPCM Audio / 2.0 / 48 kHz / 1536 kbps / 16-bitAudio: English / DTS-HD Master Audio / 5.1 / 48 kHz / 3008 kbps / 16-bit (DTS Core: 5.1 / 48 kHz / 1509 kbps / 16-bit)
********************PLAYLIST: 00007.MPLS********************
Код:
Total   Video
Title                                                           Codec   Length  Movie Size      Disc Size       Bitrate Bitrate Main Audio Track                          Secondary Audio Track
-----                                                           ------  ------- --------------  --------------  ------- ------- ------------------                        ---------------------
00007.MPLS                                                      AVC     0:05:45 556 978 176     20 747 651 409  12,91   12,00   DD AC3 2.0 256Kbps
Код:
DISC INFO:
Disc Title:     BD_POGUES_NTSC
Disc Size:      20 747 651 409 bytes
Protection:     AACS
BD-Java:        No
BDInfo:         0.5.8
PLAYLIST REPORT:
Name:                   00007.MPLS
Length:                 0:05:45.078 (h:m:s.ms)
Size:                   556 978 176 bytes
Total Bitrate:          12,91 Mbps
VIDEO:
Codec                   Bitrate             Description
-----                   -------             -----------
MPEG-4 AVC Video        12000 kbps          1080i / 29,970 fps / 16:9 / High Profile 4.1
AUDIO:
Codec                           Language        Bitrate         Description
-----                           --------        -------         -----------
Dolby Digital Audio             French          256 kbps        2.0 / 48 kHz / 256 kbps
FILES:
Name            Time In         Length          Size            Total Bitrate
----            -------         ------          ----            -------------
00006.M2TS      0:00:00.000     0:05:45.078     556 978 176     12 913
CHAPTERS:
Number          Time In         Length          Avg Video Rate  Max 1-Sec Rate  Max 1-Sec Time  Max 5-Sec Rate  Max 5-Sec Time  Max 10Sec Rate  Max 10Sec Time  Avg Frame Size  Max Frame Size  Max Frame Time
------          -------         ------          --------------  --------------  --------------  --------------  --------------  --------------  --------------  --------------  --------------  --------------
1               0:00:00.000     0:05:45.078     12 000 kbps     25 962 kbps     00:04:01.708    17 332 kbps     00:03:26.206    15 849 kbps     00:05:06.439    50 051 bytes    402 580 bytes   00:03:36.749
STREAM DIAGNOSTICS:
File            PID             Type            Codec           Language                Seconds                 Bitrate                 Bytes           Packets
----            ---             ----            -----           --------                --------------          --------------          -------------   -----
00006.M2TS      4113 (0x1011)   0x1B            AVC                                     344,945                 12 005                  517 632 497     2 824 624
00006.M2TS      4352 (0x1100)   0x81            AC3             fra (French)            344,945                 256                     11 042 816      64 704
QUICK SUMMARY:
Disc Title: BD_POGUES_NTSCDisc Size: 20 747 651 409 bytesProtection: AACSBD-Java: NoPlaylist: 00007.MPLSSize: 556 978 176 bytesLength: 0:05:45.078Total Bitrate: 12,91 MbpsVideo: MPEG-4 AVC Video / 12000 kbps / 1080i / 29,970 fps / 16:9 / High Profile 4.1Audio: French / Dolby Digital Audio / 2.0 / 48 kHz / 256 kbps
********************PLAYLIST: 00002.MPLS********************
Код:
Total   Video
Title                                                           Codec   Length  Movie Size      Disc Size       Bitrate Bitrate Main Audio Track                          Secondary Audio Track
-----                                                           ------  ------- --------------  --------------  ------- ------- ------------------                        ---------------------
00002.MPLS                                                      AVC     0:00:43 203 692 032     20 747 651 409  37,11   31,95   LPCM 2.0 1536Kbps (48kHz/16-bit)          LPCM 2.0 1536Kbps (48kHz/16-bit)
Код:
DISC INFO:
Disc Title:     BD_POGUES_NTSC
Disc Size:      20 747 651 409 bytes
Protection:     AACS
BD-Java:        No
BDInfo:         0.5.8
PLAYLIST REPORT:
Name:                   00002.MPLS
Length:                 0:00:43.910 (h:m:s.ms)
Size:                   203 692 032 bytes
Total Bitrate:          37,11 Mbps
VIDEO:
Codec                   Bitrate             Description
-----                   -------             -----------
MPEG-4 AVC Video        31945 kbps          1080i / 29,970 fps / 16:9 / High Profile 4.1
AUDIO:
Codec                           Language        Bitrate         Description
-----                           --------        -------         -----------
LPCM Audio                      French          1536 kbps       2.0 / 48 kHz / 1536 kbps / 16-bit
LPCM Audio                      French          1536 kbps       2.0 / 48 kHz / 1536 kbps / 16-bit
FILES:
Name            Time In         Length          Size            Total Bitrate
----            -------         ------          ----            -------------
00002.M2TS      0:00:00.000     0:00:43.910     203 692 032     37 110
CHAPTERS:
Number          Time In         Length          Avg Video Rate  Max 1-Sec Rate  Max 1-Sec Time  Max 5-Sec Rate  Max 5-Sec Time  Max 10Sec Rate  Max 10Sec Time  Avg Frame Size  Max Frame Size  Max Frame Time
------          -------         ------          --------------  --------------  --------------  --------------  --------------  --------------  --------------  --------------  --------------  --------------
1               0:00:00.000     0:00:43.910     31 945 kbps     55 361 kbps     00:00:07.807    36 688 kbps     00:00:06.539    34 343 kbps     00:00:00.734    133 239 bytes   746 541 bytes   00:00:40.306
STREAM DIAGNOSTICS:
File            PID             Type            Codec           Language                Seconds                 Bitrate                 Bytes           Packets
----            ---             ----            -----           --------                --------------          --------------          -------------   -----
00002.M2TS      4113 (0x1011)   0x1B            AVC                                     43,810                  32 018                  175 342 160     954 002
00002.M2TS      4352 (0x1100)   0x80            LPCM            fra (French)            43,810                  1 546                   8 466 812       52 698
00002.M2TS      4353 (0x1101)   0x80            LPCM            fra (French)            43,810                  1 546                   8 466 812       52 698
QUICK SUMMARY:
Disc Title: BD_POGUES_NTSCDisc Size: 20 747 651 409 bytesProtection: AACSBD-Java: NoPlaylist: 00002.MPLSSize: 203 692 032 bytesLength: 0:00:43.910Total Bitrate: 37,11 MbpsVideo: MPEG-4 AVC Video / 31945 kbps / 1080i / 29,970 fps / 16:9 / High Profile 4.1Audio: French / LPCM Audio / 2.0 / 48 kHz / 1536 kbps / 16-bitAudio: French / LPCM Audio / 2.0 / 48 kHz / 1536 kbps / 16-bit
********************PLAYLIST: 00003.MPLS********************
Код:
Total   Video
Title                                                           Codec   Length  Movie Size      Disc Size       Bitrate Bitrate Main Audio Track                          Secondary Audio Track
-----                                                           ------  ------- --------------  --------------  ------- ------- ------------------                        ---------------------
00003.MPLS                                                      AVC     0:00:29 137 005 056     20 747 651 409  37,07   31,92   LPCM 2.0 1536Kbps (48kHz/16-bit)          LPCM 2.0 1536Kbps (48kHz/16-bit)
Код:
DISC INFO:
Disc Title:     BD_POGUES_NTSC
Disc Size:      20 747 651 409 bytes
Protection:     AACS
BD-Java:        No
BDInfo:         0.5.8
PLAYLIST REPORT:
Name:                   00003.MPLS
Length:                 0:00:29.562 (h:m:s.ms)
Size:                   137 005 056 bytes
Total Bitrate:          37,07 Mbps
VIDEO:
Codec                   Bitrate             Description
-----                   -------             -----------
MPEG-4 AVC Video        31919 kbps          1080i / 29,970 fps / 16:9 / High Profile 4.1
AUDIO:
Codec                           Language        Bitrate         Description
-----                           --------        -------         -----------
LPCM Audio                      French          1536 kbps       2.0 / 48 kHz / 1536 kbps / 16-bit
LPCM Audio                      French          1536 kbps       2.0 / 48 kHz / 1536 kbps / 16-bit
FILES:
Name            Time In         Length          Size            Total Bitrate
----            -------         ------          ----            -------------
00003.M2TS      0:00:00.000     0:00:29.562     137 005 056     37 075
CHAPTERS:
Number          Time In         Length          Avg Video Rate  Max 1-Sec Rate  Max 1-Sec Time  Max 5-Sec Rate  Max 5-Sec Time  Max 10Sec Rate  Max 10Sec Time  Avg Frame Size  Max Frame Size  Max Frame Time
------          -------         ------          --------------  --------------  --------------  --------------  --------------  --------------  --------------  --------------  --------------  --------------
1               0:00:00.000     0:00:29.562     31 919 kbps     32 553 kbps     00:00:00.100    32 111 kbps     00:00:00.100    32 055 kbps     00:00:00.100    133 128 bytes   746 540 bytes   00:00:16.016
STREAM DIAGNOSTICS:
File            PID             Type            Codec           Language                Seconds                 Bitrate                 Bytes           Packets
----            ---             ----            -----           --------                --------------          --------------          -------------   -----
00003.M2TS      4113 (0x1011)   0x1B            AVC                                     29,429                  32 064                  117 951 493     641 640
00003.M2TS      4352 (0x1100)   0x80            LPCM            fra (French)            29,429                  1 550                   5 700 132       35 478
00003.M2TS      4353 (0x1101)   0x80            LPCM            fra (French)            29,429                  1 550                   5 700 132       35 478
QUICK SUMMARY:
Disc Title: BD_POGUES_NTSCDisc Size: 20 747 651 409 bytesProtection: AACSBD-Java: NoPlaylist: 00003.MPLSSize: 137 005 056 bytesLength: 0:00:29.562Total Bitrate: 37,07 MbpsVideo: MPEG-4 AVC Video / 31919 kbps / 1080i / 29,970 fps / 16:9 / High Profile 4.1Audio: French / LPCM Audio / 2.0 / 48 kHz / 1536 kbps / 16-bitAudio: French / LPCM Audio / 2.0 / 48 kHz / 1536 kbps / 16-bit

Скриншоты

Other forum [Profile] [PM]
Display posts from previous:    
Reply to topic

The time now is: Today 15:18

All times are GMT + 3 Hours



You cannot post new topics in this forum
You cannot reply to topics in this forum
You cannot edit your posts in this forum
You cannot delete your posts in this forum
You cannot vote in polls in this forum
You cannot attach files in this forum
You cannot download files in this forum