Сегодня идет свободное скачивание без начисления Download

Рядом с нами (1957) DVDRip [H.264]

Ответить на тему
 
Автор
Сообщение

UndegraundMen ®

Стаж: 5 лет 7 месяцев

Сообщений: 25860

Торрент-статистика

Пост 04-Май-2013 00:12

[Цитировать]

Рядом с нами (1957) DVDRip- Русское название: Рядом с нами
Год выпуска: 1957
Жанр: Драма
Описание фильма:
Инженер и журналист приехали на один из заводов Алтая. Они только что закончили институты и уверены в том, что будущее в их руках. На заводе все отношения складываются вокруг сомнительной славы токаря Миловидова. Свежий взгляд, уверенность в себе и друг в друге помогают друзьям разоблачить «рекордсмена»…
Режиссер: Адольф Бергункер
Актеры: Леонид Быков, Иннокентий Смоктуновский, Клара Лучко, Георгий Юматов, Николай Рыбников, Нина Дорошина, Людмила Шагалова, Борис Чирков, Зинаида Шарко, Владислав Стржельчик, Борис Аракелов, Олег Ефремов
Продолжительность: 01:28:40

Видеокодек: MPEG-4 AVC/H.264
Формат: mkv
Битрейт видео: ~2156 kbps
Размер кадра: [email protected] (4:3)
Качество видео: DVDRip
Аудиокодек: AC3 2.0
Битрейт аудио: 112.00 kbps

MI

Общее
Уникальный идентификатор : 180273475978114285487962704400887145623 (0x879F689728B018339452C4A857F16497)
Полное имя : C:\Users\1\Downloads\Rjadom.s.nami.mkv
Формат : Matroska
Версия формата : Version 2
Размер файла : 1,46 Гбайт
Продолжительность : 1 ч. 28 м.
Общий поток : 2350 Кбит/сек
Дата кодирования : UTC 2013-03-19 07:06:10
Программа кодирования : mkvmerge v5.0.1 ('Es ist Sommer') built on Nov 6 2011 16:23:40
Библиотека кодирования : libebml v1.2.2 + libmatroska v1.3.0
Видео
Идентификатор : 1
Формат : AVC
Формат/Информация : Advanced Video Codec
Профиль формата : [url=mailto:[email protected]][email protected][/url]
Параметр CABAC формата : Да
Параметр ReFrames формата : 11 кадров
Идентификатор кодека : V_MPEG4/ISO/AVC
Продолжительность : 1 ч. 28 м.
Битрейт : 2156 Кбит/сек
Ширина : 688 пикселей
Высота : 572 пикселя
Соотношение сторон : 1,283
Частота кадров : 25,000 кадров/сек
Цветовое пространство : YUV
Субдискретизация насыщенности : 4:2:0
Битовая глубина : 8 бит
Тип развёртки : Прогрессивная
Бит/(Пиксели*Кадры) : 0.219
Размер потока : 1,31 Гбайт (90%)
Библиотека кодирования : x264 core 119 r2106 07efeb4
Настройки программы : cabac=1 / ref=11 / deblock=1:-2:-1 / analyse=0x3:0x113 / me=umh / subme=9 / psy=1 / psy_rd=1.00:0.20 / mixed_ref=1 / me_range=32 / chroma_me=1 / trellis=1 / 8x8dct=1 / cqm=0 / deadzone=21,11 / fast_pskip=0 / chroma_qp_offset=-3 / threads=3 / sliced_threads=0 / nr=0 / decimate=0 / interlaced=0 / bluray_compat=0 / constrained_intra=0 / bframes=8 / b_pyramid=2 / b_adapt=2 / b_bias=0 / direct=3 / weightb=1 / open_gop=0 / weightp=2 / keyint=250 / keyint_min=25 / scenecut=40 / intra_refresh=0 / rc_lookahead=60 / rc=2pass / mbtree=1 / bitrate=2156 / ratetol=1.0 / qcomp=0.60 / qpmin=0 / qpmax=69 / qpstep=4 / cplxblur=20.0 / qblur=0.5 / ip_ratio=1.40 / aq=1:1.00
Default : Да
Forced : Нет
Аудио
Идентификатор : 2
Формат : AC-3
Формат/Информация : Audio Coding 3
Расширение режима : CM (complete main)
Идентификатор кодека : A_AC3
Продолжительность : 1 ч. 28 м.
Вид битрейта : Постоянный
Битрейт : 192 Кбит/сек
Каналы : 2 канала
Расположение каналов : Front: L R
Частота : 48,0 КГц
Битовая глубина : 16 бит
Метод сжатия : С потерями
Размер потока : 122 Мбайт (8%)
Default : Да
Forced : Нет
Скриншоты:
       
Время раздачи: 24/7
Вне форума [Профиль] [ЛС]
Показать сообщения:    
Ответить на тему

Текущее время: Сегодня 14:13

Часовой пояс: GMT + 3



Вы не можете начинать темы
Вы не можете отвечать на сообщения
Вы не можете редактировать свои сообщения
Вы не можете удалять свои сообщения
Вы не можете голосовать в опросах
Вы не можете прикреплять файлы к сообщениям
Вы не можете скачивать файлы