Today is a free download without charge Download

Любовь – это всё, что тебе нужно / Den skaldede frisor (Сюзанна Бир) [2012.., Дания, Швеция, Италия, Франция, Германия, Мелодрама, Комедия, [1080p] BDRip]

Reply to topic
 
Author
Message

Meshanik ®

Gender:

Longevity: 8 years 10 months

Posts: 3866

Location: Los Angeles

Торрент-статистика

Post 03-May-2013 23:45

[Quote]

Любовь – это всё, что тебе нужно / Den skaldede frisor- Русское название: Любовь – это всё, что тебе нужно
Оригинальное название: Den skaldede frisor
Год выпуска: 2012
Производство: Дания, Швеция, Италия, Франция, Германия
Жанр: Мелодрама, Комедия
Продолжительность: 01:51:13
Перевод: Двуголосый закадровый, любительский
Озвучка / Автор перевода: den904 и DeadSno / Janetta
Язык субтитров: Английский
Вид субтитров: Вшитые отключаемые-Описание фильма:
Филипп — одинокий вдовец и фанат своей работы. Он владеет большой фирмой по выращиванию и продаже овощей. В его жизни нет ничего, кроме бизнеса, и вот однажды сын объявляет ему, что женится на девушке из Швеции, и просит у Филиппа разрешения устроить свадьбу на его вилле в Соренто. Филипп отправляется в Италию, где он, наконец-то, поймет, что кроме работы в жизни есть еще и любовь: с множеством поворотов и приключений!-Режиссер: Сюзанна Бир / Susanne Bier
Актеры: Трине Дюрхольм, Пирс Броснан, Паприка Стеэн, Ким Бодниа, Кристиан Шамбург-Мюллер, Себастьян Йессен, Молли Бликст Эгелинд, Стина Экблад, Бодиль Ёргенсон, Мики Скил Хансен, Лине Крусе, Рикке Луиз Андерссон, Бирте Нойманн, Фредерикке Томассен, Филип Санден, Чиро Петроне, Томас Восс, Мария Хелена Гуггенхейм, Марко Д’Амор, Мария Стенц, Кристиана Рохд, Томас Джессинг, Уильям Саликат, Анне О. Паг, Симона Нилсен, Себастьян Ланд
- -Дата мировой премьеры: 2 сентября 2012
Дата российской премьеры: 7 марта 2013, «Наше Кино»
Дата выхода DVD релиза: 2 апреля 2013, «Флагман-Трейд»-Качество видео: BDRip 1080p
Видеокодек: MPEG-4 AVC/H.264
Видео: H.264, битрейт: 9495 Кбит/с, 1920x816, fps 25.000
Аудио #1: Русский: AC3, 2.0, 192 Кбит/с, 48 kHz, 16 bit - двуголосый закадровый
Аудио #2: Датский: DTS, 5.1, 1536 Кбит/с, 48 kHz, 24 bit
-

MediaInfo:

Общее
Уникальный идентификатор : 188420043966459700683424698355536939888 (0x8DC061671F648A9FA6D6E5A7AAC4CB70)
Полное имя : D:\Video\Love.Is.All.You.Need.BDRip.1080p.ac3.dts.Rus.Den.mkv
Формат : Matroska
Версия формата : Version 2
Размер файла : 8,70 Гбайт
Продолжительность : 1 ч. 51 м.
Общий поток : 11,2 Мбит/сек
Дата кодирования : UTC 2013-02-25 16:09:31
Программа кодирования : mkvmerge v6.0.0 ('Coming Up For Air') built on Jan 20 2013 09:52:00
Библиотека кодирования : libebml v1.3.0 + libmatroska v1.4.0
Видео
Идентификатор : 1
Формат : AVC
Формат/Информация : Advanced Video Codec
Профиль формата : [url=mailto:[email protected]][email protected][/url]
Параметр CABAC формата : Да
Параметр ReFrames формата : 5 кадров
Идентификатор кодека : V_MPEG4/ISO/AVC
Продолжительность : 1 ч. 51 м.
Битрейт : 9713 Кбит/сек
Ширина : 1920 пикселей
Высота : 816 пикселей
Соотношение сторон : 2,35:1
Частота кадров : 25,000 кадров/сек
Цветовое пространство : YUV
Субдискретизация насыщенности : 4:2:0
Битовая глубина : 8 бит
Тип развёртки : Прогрессивная
Бит/(Пиксели*Кадры) : 0.248
Размер потока : 7,21 Гбайт (83%)
Библиотека кодирования : x264 core 129 r2230 1cffe9f
Настройки программы : cabac=1 / ref=5 / deblock=1:-3:-3 / analyse=0x3:0x113 / me=umh / subme=8 / psy=1 / psy_rd=1.00:0.00 / mixed_ref=1 / me_range=16 / chroma_me=1 / trellis=1 / 8x8dct=1 / cqm=0 / deadzone=21,11 / fast_pskip=1 / chroma_qp_offset=-2 / threads=16 / lookahead_threads=2 / sliced_threads=0 / nr=0 / decimate=1 / interlaced=0 / bluray_compat=0 / constrained_intra=0 / bframes=3 / b_pyramid=2 / b_adapt=1 / b_bias=0 / direct=3 / weightb=1 / open_gop=0 / weightp=2 / keyint=250 / keyint_min=25 / scenecut=40 / intra_refresh=0 / rc_lookahead=50 / rc=abr / mbtree=1 / bitrate=9713 / ratetol=1.0 / qcomp=0.60 / qpmin=0 / qpmax=69 / qpstep=4 / ip_ratio=1.40 / aq=1:1.00
Язык : English
Default : Да
Forced : Нет
Аудио #1
Идентификатор : 2
Формат : AC-3
Формат/Информация : Audio Coding 3
Расширение режима : CM (complete main)
Идентификатор кодека : A_AC3
Продолжительность : 1 ч. 51 м.
Вид битрейта : Постоянный
Битрейт : 192 Кбит/сек
Каналы : 2 канала
Расположение каналов : Front: L R
Частота : 48,0 КГц
Битовая глубина : 16 бит
Метод сжатия : С потерями
Размер потока : 153 Мбайт (2%)
Заголовок : DVO [den904, DeadSno]
Язык : Russian
Default : Да
Forced : Нет
Аудио #2
Идентификатор : 3
Формат : DTS
Формат/Информация : Digital Theater Systems
Идентификатор кодека : A_DTS
Продолжительность : 1 ч. 51 м.
Вид битрейта : Постоянный
Битрейт : 1510 Кбит/сек
Каналы : 6 каналов
Расположение каналов : Front: L C R, Side: L R, LFE
Частота : 48,0 КГц
Битовая глубина : 24 бит
Метод сжатия : С потерями
Размер потока : 1,17 Гбайт (13%)
Язык : Danish
Default : Нет
Forced : Нет
Текст
Идентификатор : 4
Формат : UTF-8
Идентификатор кодека : S_TEXT/UTF8
Идентификатор кодека/Информация : UTF-8 Plain Text
Язык : English
Default : Нет
Forced : Нет
Меню
00:00:00.000 : en:00:00:00.000
00:09:59.560 : en:00:09:59.560
00:19:59.920 : en:00:19:59.920
00:29:59.640 : en:00:29:59.640
00:39:59.680 : en:00:39:59.680
00:49:59.680 : en:00:49:59.680
00:59:59.760 : en:00:59:59.760
01:09:59.920 : en:01:09:59.920
01:19:59.600 : en:01:19:59.600
01:29:59.880 : en:01:29:59.880
01:39:59.720 : en:01:39:59.720

Bitrate Viewer

Скриншоты:
         
         
Other forum [Profile] [PM]
Display posts from previous:    
Reply to topic

The time now is: Today 01:26

All times are GMT + 3 Hours



You cannot post new topics in this forum
You cannot reply to topics in this forum
You cannot edit your posts in this forum
You cannot delete your posts in this forum
You cannot vote in polls in this forum
You cannot attach files in this forum
You cannot download files in this forum