Today is a free download without charge Download

Любовь – это всё, что тебе нужно / Den skaldede frisor (Сюзанна Бир) [2012.., Дания, Швеция, Италия, Франция, Германия, Мелодрама, Комедия, DVD9]

Reply to topic
 
Author
Message

Meshanik ®

Gender:

Longevity: 8 years 10 months

Posts: 3866

Location: Los Angeles

Торрент-статистика

Post 03-May-2013 22:41

[Quote]

Любовь – это всё, что тебе нужно / Den skaldede frisor- Русское название: Любовь – это всё, что тебе нужно
Оригинальное название: Den skaldede frisor
Год выпуска: 2012
Производство: Дания, Швеция, Италия, Франция, Германия
Жанр: Мелодрама, Комедия
Продолжительность: 01:51:14
Перевод: Дублированный (Лицензия)
Субтитры: Отсутствуют
Режиссер: Сюзанна Бир
Актеры: Трине Дюрхольм, Пирс Броснан, Паприка Стеэн, Ким Бодния, Кристиан Шамбург-Мюллер, Себастьян Йессен, Молли Бликст Эгелинд, Стина Экблад, Бодиль Ёргенсон, Рикке Луиз Андерссон
Описание фильма:
Филипп красив, богат и… одинок. Ида замужем, но ее супруг увлечен другой. Скоро они встретятся на свадьбе своих детей в одном из самых живописных городов мира -итальянском Сорренто. Знойные неаполитанские ночи, аромат лимонных деревьев и непередаваемая атмосфера праздника помогут вспомнить, что любовь — это все, что им нужно…
Дата мировой премьеры: 2 сентября 2012
Дата российской премьеры: 7 марта 2013, «Наше Кино»
Дата выхода DVD релиза: 9 апреля 2013, «Флагман-Трейд»

Качество видео: DVD9
Видеокодек: MPEG-2
Битрейт видео: ~5785 kbps
Размер кадра: PAL 16:9 ([email protected]х576)
Аудио: AC3, 6 ch, 448 kbps (Дублированный, Русский)
Доп. материалы: Отсутствуют

MediaInfo:

Общее
Полное имя : Lubov.eto.vse.chto.tebe.nuzhno.2012.DVD9\VIDEO_TS\VTS_01_1.VOB
Формат : MPEG-PS
Размер файла : 1024 Мбайт
Продолжительность : 22 м.
Режим общего битрейта : Переменный
Общий поток : 6359 Кбит/сек
Библиотека кодирования : (c) 1998-2009 Womble Multimedia, Inc. / MPEG Video Wizard (03/2009) / Jun 24 2009
Видео
Идентификатор : 224 (0xE0)
Формат : MPEG Video
Версия формата : Version 2
Профиль формата : [email protected]
Параметр BVOP формата : Да
Параметр матрицы формата : Выборочная
Параметр GOP формата : M=3, N=15
Продолжительность : 22 м.
Вид битрейта : Переменный
Битрейт : 5785 Кбит/сек
Максимальный битрейт : 8000 Кбит/сек
Ширина : 720 пикселей
Высота : 576 пикселей
Соотношение сторон : 16:9
Частота кадров : 25,000 кадров/сек
Стандарт вещания : PAL
Цветовое пространство : YUV
Субдискретизация насыщенности : 4:2:0
Битовая глубина : 8 бит
Тип развёртки : Прогрессивная
Метод сжатия : С потерями
Бит/(Пиксели*Кадры) : 0.558
Размер потока : 931 Мбайт (91%)
Библиотека кодирования : (c) 1998-2009 Womble Multimedia, Inc. / MPEG Video Wizard (03/2009) / Jun 24 2009
Аудио
Идентификатор : 189 (0xBD)-128 (0x80)
Формат : AC-3
Формат/Информация : Audio Coding 3
Расширение режима : CM (complete main)
Режим смешивания : DVD-Video
Продолжительность : 22 м.
Вид битрейта : Постоянный
Битрейт : 448 Кбит/сек
Каналы : 6 каналов
Расположение каналов : Front: L C R, Side: L R, LFE
Частота : 48,0 КГц
Битовая глубина : 16 бит
Метод сжатия : С потерями
Задержка видео : -80 мс.
Размер потока : 72,1 Мбайт (7%)
Меню

DVDInfo:

Title: Lubov.eto.vse.chto.tebe.nuzhno.2012.DVD9
Size: 4.83 Gb ( 5 062 436,00 KBytes ) - DVD-9
Enabled regions: 1, 2, 3, 4, 5, 6, 7, 8
VTS_01 :
Play Length: 01:51:14
Video: PAL 16:9 (720x576) VBR, Auto Letterboxed
Audio:
  • Russian (Dolby AC3, 6 ch)
    * Menus Information *
    VIDEO_TS Menu
    Video:
  • PAL 16:9 (720x576) VBR
  • Auto Letterboxed
    Audio:
  • Not specified (Dolby AC3, 2 ch)
    Russian Language Unit :
  • Title Menu
    VTS_01 Menu
    Video:
  • PAL 16:9 (720x576) VBR
  • Auto Letterboxed
    Audio:
  • Not specified (Dolby AC3, 2 ch)
    Russian Language Unit :
  • Root Menu

Меню DVD:

     
Скриншоты:
       
       
Other forum [Profile] [PM]
Display posts from previous:    
Reply to topic

The time now is: Today 02:35

All times are GMT + 3 Hours



You cannot post new topics in this forum
You cannot reply to topics in this forum
You cannot edit your posts in this forum
You cannot delete your posts in this forum
You cannot vote in polls in this forum
You cannot attach files in this forum
You cannot download files in this forum