Today is a free download without charge Download

Королевский бутерброд (Андрей Хржановский) [1985 г., Мультфильм, DVB-AVC]

Reply to topic
 
Author
Message

Omen ®

Longevity: 7 years 11 months

Posts: 181087

Торрент-статистика

Post 03-May-2013 22:16

[Quote]

Королевский бутерброд
Жанр: мультфильм
Год выпуска: 1985
Продолжительность: 00:09:54
Режиссёр: Андрей Хржановский
Описание: В основе мультфильма - известное стихотворение Алана Милна в переводе Самуила Маршака о том, как из-за прихоти капризного короля было взбудоражено все королевство.
Доп. информация: Музыка В. Шумова в исполнении рок-группы "Центр" и Валентины Пономарёвой.

Трансляция спутникового канала: "Звезда"
Качество видео: DVB
Формат видео: MPEG-TS
Видео: MPEG4 Video (H264), [email protected] (4:3), анаморф, 25 fps, 4400 kbps
Аудио: MPEG Audio, 2 сh, 48 kHz, 192 kbps

MediaInfo

General
ID : 1
Complete name : D:\Королевский бутерброд. (1985)_DVB by SLuMeP.ts
Format : MPEG-TS
File size : 339 MiB
Duration : 9mn 54s
Overall bit rate : 4 787 Kbps
Video
ID : 1371 (0x55B)
Menu ID : 1 (0x1)
Format : AVC
Format/Info : Advanced Video Codec
Format profile : [email protected]
Format settings, CABAC : Yes
Format settings, ReFrames : 3 frames
Format settings, GOP : M=4, N=28
Codec ID : 27
Duration : 9mn 54s
Bit rate : 4 357 Kbps
Width : 720 pixels
Height : 576 pixels
Display aspect ratio : 4:3
Frame rate : 25.000 fps
Standard : Component
Color space : YUV
Chroma subsampling : 4:2:0
Bit depth : 8 bits
Scan type : Progressive
Bits/(Pixel*Frame) : 0.420
Stream size : 309 MiB (91%)
Color primaries : BT.470-6 System B, BT.470-6 System G, BT.601-6 625, BT.1358 625, BT.1700 625 PAL, BT.1700 625 SECAM
Transfer characteristics : BT.470-6 System B, BT.470-6 System G
Matrix coefficients : BT.470-6 System B, BT.470-6 System G, BT.601-6 625, BT.1358 625, BT.1700 625 PAL, BT.1700 625 SECAM, IEC 61966-2-4 601
Audio
ID : 1372 (0x55C)
Menu ID : 1 (0x1)
Format : MPEG Audio
Format version : Version 1
Format profile : Layer 2
Codec ID : 3
Duration : 9mn 54s
Bit rate mode : Constant
Bit rate : 192 Kbps
Channel(s) : 2 channels
Sampling rate : 48.0 KHz
Video delay : -40ms
Stream size : 13.6 MiB (4%)
Language : Russian

Скриншоты

Other forum [Profile] [PM]
Similar theme
Forum Topic Author Torrent Replies Last Post
./templates/default/images/folder_dl.gif Комиксы, Графика, Wallpapers, Арт Королькова А. - Живая типографика [2007, PDF, RUS] Omen
1 | 0

0 | 833

0

2016-08-16 01:01
Omen Latest
Display posts from previous:    
Reply to topic

The time now is: Today 14:20

All times are GMT + 3 Hours



You cannot post new topics in this forum
You cannot reply to topics in this forum
You cannot edit your posts in this forum
You cannot delete your posts in this forum
You cannot vote in polls in this forum
You cannot attach files in this forum
You cannot download files in this forum