Today is a free download without charge Download

Linkin Park - Rock im Park 03-06-2012 HD 720p [2012, Alternative Rock, HDTVRip 720p]

Reply to topic
 
Author
Message

Omen ®

Longevity: 8 years 4 months

Posts: 181087

Торрент-статистика

Post 03-May-2013 22:16

[Quote]

Linkin Park - Rock im Park 03.06.2012 HD 720p
Жанр: Alternative Rock
Продолжительность: 59m:29s
Год выпуска: 2012
Описание: Выступление Linkin Park на фестивале Rock im Park 3-го июня 2012.
Треклист:
01. Given Up
02. Faint
03. From The Inside
04. Somewhere I Belong
05. Numb
06. LIES GREED MISERY
07. Waiting For The End
08. Breaking The Habit
09. LOATR/SOTD/Iridescent (Ballad Medley)
10. BURN IT DOWN
11. What I've Done
12. New Divide
13. In The End
14. Papercut
15. One Step Closer
Качество: HDTVRip 720p
Контейнер: TS
Видео кодек: H.264
Видео: AVC, 1280x720, 11.9 Mbps, 50.000 fps
Аудио: MPEG Audio Layer 2, 192 Kbps, 2 ch, 48.0 KHz
Аудио 2: AC-3, 448 Kbps, 2 ch, 48.0 KHz

Отчёт MediaInfo / BDInfo

GeneralID : 1 (0x1)Complete name : F:\Linkin Park - Rock im Park 2012 (1 hour version) 720p\Linkin Park - Rock im Park 2012-06-03 (1 hour version) BR HD 720p.tsFormat : MPEG-TSFile size : 5.47 GiBDuration : 59mn 29sOverall bit rate mode : VariableOverall bit rate : 13.2 MbpsMaximum Overall bit rate : 35.5 Mbps
VideoID : 4113 (0x1011)Menu ID : 1 (0x1)Format : AVCFormat/Info : Advanced Video CodecFormat profile : [email protected] settings, CABAC : YesFormat settings, ReFrames : 4 framesCodec ID : 27Duration : 59mn 29sBit rate mode : VariableBit rate : 11.9 MbpsMaximum bit rate : 40.0 MbpsWidth : 1 280 pixelsHeight : 720 pixelsDisplay aspect ratio : 16:9Frame rate : 50.000 fpsColor space : YUVChroma subsampling : 4:2:0Bit depth : 8 bitsScan type : ProgressiveBits/(Pixel*Frame) : 0.258Stream size : 4.94 GiB (90%)
Audio #1ID : 4352 (0x1100)Menu ID : 1 (0x1)Format : MPEG AudioFormat version : Version 1Format profile : Layer 2Codec ID : 4Duration : 59mn 29sBit rate mode : ConstantBit rate : 192 KbpsChannel(s) : 2 channelsSampling rate : 48.0 KHzCompression mode : LossyDelay relative to video : -164msStream size : 81.7 MiB (1%)Language : German
Audio #2ID : 4353 (0x1101)Menu ID : 1 (0x1)Format : AC-3Format/Info : Audio Coding 3Mode extension : CM (complete main)Format settings, Endianness : BigCodec ID : 129Duration : 59mn 29sBit rate mode : ConstantBit rate : 448 KbpsChannel(s) : 2 channelsChannel positions : Front: L RSampling rate : 48.0 KHzBit depth : 16 bitsCompression mode : LossyDelay relative to video : -162msStream size : 191 MiB (3%)Language : German

Скриншоты

Other forum [Profile] [PM]
Display posts from previous:    
Reply to topic

The time now is: Today 16:40

All times are GMT + 3 Hours



You cannot post new topics in this forum
You cannot reply to topics in this forum
You cannot edit your posts in this forum
You cannot delete your posts in this forum
You cannot vote in polls in this forum
You cannot attach files in this forum
You cannot download files in this forum