Today is a free download without charge Download

Вне времени / Out Of Time (Карл Франклин / Carl Franklin)(триллер, драма, криминал.2003) BDRip 1080p

Reply to topic
 
Author
Message

KirovSOFT ®

Gender:

Longevity: 9 years

Posts: 998

Location: Кировская область -Оричи

Торрент-статистика

Post 03-May-2013 14:01

[Quote]

Вне времени / Out Of Time
Название: Вне времени
Оригинальное название: Out Of Time
Год выхода: 2003
Жанр: триллер, драма, криминал
Режиссер: Карл Франклин / Carl Franklin
Выпущено: США
Продолжительность: 01:45:25
Перевод: Дублированный + Оригинал
В ролях:
Дэнзел Вашингтон, Ева Мендес, Сэна Латан, Дин Кейн, Джон Биллингсли, Роберт Бейкер, Алекс Картер, Энтони Короун, Эвелин Брукс

Начальник отделения полиции небольшого курортного города, Маттиас Ли Уитлок, расстроенный тем, что от него уходит жена, затевает роман с замужней женщиной Энн Мераи Хэррисон. Вскоре он узнает, что его новая подруга больна раком, а ее муж, по-видимому, хочет получить за смерть жены очень крупную страховку.
Маттиас решает пойти на должностное преступление, чтобы помочь Энн пройти курс лечения в дорогой клинике за границей, а Энн, в знак благодарности за заботу о ней, делает Маттиаса доверенным лицом на получение выплаты от страховой компании. Внезапно Энн и ее муж погибают, и все улики указывают на героя Дензела Вашингтона. Ему нужно срочно доказать свою невиновность, потому что число подозреваемых сокращается, и времени остается все меньше и меньше…



Кодек: x264
Качество: BDRip 1080p
Видео: 1920x800, 6937 Kbps, 23.976 fps
Аудио #1: AC-3, 6 ch, 448 kbps (Rus)
Аудио#2: AC-3, 6 ch, 448 kbps (Eng)
Субтитры: русские, английские

MI:

Общее
Уникальный идентификатор : 177071735399587661922355922267497038338 (0x8536C6979F3A8E8DB9C8418CD6180202)
Полное имя : S:Вне времени.2003.BDRip.1080p.Rus.Eng.mkv
Формат : Matroska
Версия формата : Version 4 / Version 2
Размер файла : 5,77 Гбайт
Продолжительность : 1 ч. 45 м.
Общий поток : 7834 Кбит/сек
Название фильма : Вне времени.2003
Дата кодирования : UTC 2013-05-02 16:56:10
Программа кодирования : mkvmerge v6.2.0 ('Promised Land') built on Apr 28 2013 12:22:01
Библиотека кодирования : libebml v1.3.0 + libmatroska v1.4.0
Видео
Идентификатор : 1
Формат : AVC
Формат/Информация : Advanced Video Codec
Профиль формата : [email protected]
Параметр CABAC формата : Да
Параметр ReFrames формата : 5 кадров
Идентификатор кодека : V_MPEG4/ISO/AVC
Продолжительность : 1 ч. 45 м.
Битрейт : 6937 Кбит/сек
Ширина : 1920 пикселей
Высота : 800 пикселей
Соотношение сторон : 2,40:1
Режим частоты кадров : Постоянный
Частота кадров : 23,976 кадра/сек
Цветовое пространство : YUV
Субдискретизация насыщенности : 4:2:0
Битовая глубина : 8 бит
Тип развёртки : Прогрессивная
Бит/(Пиксели*Кадры) : 0.188
Размер потока : 4,99 Гбайт (87%)
Заголовок : Rip by Boriy
Библиотека кодирования : x264 core 132 r2309 3b1f1f7
Настройки программы : cabac=1 / ref=5 / deblock=1:-3:-3 / analyse=0x3:0x113 / me=umh / subme=10 / psy=1 / psy_rd=1.00:0.10 / mixed_ref=1 / me_range=32 / chroma_me=1 / trellis=2 / 8x8dct=1 / cqm=0 / deadzone=21,11 / fast_pskip=0 / chroma_qp_offset=-2 / threads=12 / lookahead_threads=1 / sliced_threads=0 / nr=0 / decimate=0 / interlaced=0 / bluray_compat=0 / constrained_intra=0 / bframes=5 / b_pyramid=2 / b_adapt=2 / b_bias=0 / direct=3 / weightb=1 / open_gop=0 / weightp=2 / keyint=240 / keyint_min=23 / scenecut=40 / intra_refresh=0 / rc=2pass / mbtree=0 / bitrate=6937 / ratetol=1.0 / qcomp=0.60 / qpmin=0 / qpmax=69 / qpstep=4 / cplxblur=20.0 / qblur=0.5 / ip_ratio=1.40 / pb_ratio=1.30 / aq=1:0.80
Язык : English
Default : Да
Forced : Нет
Аудио #1
Идентификатор : 2
Формат : AC-3
Формат/Информация : Audio Coding 3
Расширение режима : CM (complete main)
Параметр Endianness формата : Big
Идентификатор кодека : A_AC3
Продолжительность : 1 ч. 45 м.
Вид битрейта : Постоянный
Битрейт : 448 Кбит/сек
Каналы : 6 каналов
Расположение каналов : Front: L C R, Side: L R, LFE
Частота : 48,0 КГц
Битовая глубина : 16 бит
Метод сжатия : С потерями
Размер потока : 338 Мбайт (6%)
Заголовок : Дубляж
Язык : Russian
Default : Да
Forced : Нет
Аудио #2
Идентификатор : 3
Формат : AC-3
Формат/Информация : Audio Coding 3
Расширение режима : CM (complete main)
Параметр Endianness формата : Big
Идентификатор кодека : A_AC3
Продолжительность : 1 ч. 45 м.
Вид битрейта : Постоянный
Битрейт : 448 Кбит/сек
Каналы : 6 каналов
Расположение каналов : Front: L C R, Side: L R, LFE
Частота : 48,0 КГц
Битовая глубина : 16 бит
Метод сжатия : С потерями
Размер потока : 338 Мбайт (6%)
Заголовок : Оригинал
Язык : English
Default : Нет
Forced : Нет
Текст #1
Идентификатор : 4
Формат : UTF-8
Идентификатор кодека : S_TEXT/UTF8
Идентификатор кодека/Информация : UTF-8 Plain Text
Язык : Russian
Default : Нет
Forced : Нет
Текст #2
Идентификатор : 5
Формат : UTF-8
Идентификатор кодека : S_TEXT/UTF8
Идентификатор кодека/Информация : UTF-8 Plain Text
Язык : English
Default : Нет
Forced : Нет
Меню
00:00:00.000 : :Chapter 1
00:02:03.873 : :Chapter 2
00:07:49.050 : :Chapter 3
00:09:09.548 : :Chapter 4
00:11:51.961 : :Chapter 5
00:14:16.689 : :Chapter 6
00:19:01.557 : :Chapter 7
00:22:24.301 : :Chapter 8
00:24:55.577 : :Chapter 9
00:26:02.101 : :Chapter 10
00:29:42.614 : :Chapter 11
00:31:33.181 : :Chapter 12
00:33:22.750 : :Chapter 13
00:35:53.109 : :Chapter 14
00:39:50.513 : :Chapter 15
00:43:46.707 : :Chapter 16
00:47:16.416 : :Chapter 17
00:49:10.489 : :Chapter 18
00:56:41.564 : :Chapter 19
00:59:48.459 : :Chapter 20
01:01:37.235 : :Chapter 21
01:06:40.412 : :Chapter 22
01:08:04.914 : :Chapter 23
01:13:21.188 : :Chapter 24
01:16:59.363 : :Chapter 25
01:20:48.301 : :Chapter 26
01:26:12.959 : :Chapter 27
01:31:11.756 : :Chapter 28
01:34:47.680 : :Chapter 29
01:38:14.054 : :Chapter 30
01:39:22.456 : :Chapter 31
01:42:38.694 : :Chapter 32
01:45:25.068 : :Chapter 33

       

_________________
Other forum [Profile] [PM]
Display posts from previous:    
Reply to topic

The time now is: Today 02:27

All times are GMT + 3 Hours



You cannot post new topics in this forum
You cannot reply to topics in this forum
You cannot edit your posts in this forum
You cannot delete your posts in this forum
You cannot vote in polls in this forum
You cannot attach files in this forum
You cannot download files in this forum