Today is a free download without charge Download

Обряд / The Rite (Микаэль Хафстрем) [2011,Ужасы, триллер, драма, BDRip 720p]

Reply to topic
 
Author
Message

Samizdat ®

Longevity: 8 years 3 months

Posts: 64

Торрент-статистика

Post 24-Jul-2011 18:13

[Quote]

Обряд / The Rite-- Год выхода: 2011
Жанр: Ужасы, триллер, драма
Режиссер: Микаэль Хафстрем
В ролях: Энтони Хопкинс, Колин О’Донохью, Алиси Брага, Киаран Хиндс, Тоби Джонс, Рутгер Хауэр, Марта Гастини, Мария Грация Кучинотта, Арианна Веронези, Андре Каллиджари и др.
--О фильме:
Фильм рассказывает об американском священнике, который отправляется в Ватикан учиться в школе экзорцизма.-- --Страна: США
Студия: New Line Cinema
Продолжительность: 01:53:42
Перевод: Профессиональное |многоголосое| + Оригинал--Кодек: h.264
Качество: BDRip 720p [рип с Blu-Ray Remux 1080p]
Видео: [email protected], 1280x536 , 23.976 fps, ~4286 kbps avg, 0.221 bit/pixel.
Аудио 1: 48 kHz, AC3 Dolby Digital 2 ch, ~192.00 kbps avg | MVO-Лицензия
Аудио 2: 48 kHz, AC3 Dolby Digital, 3/2 (L,C,R,l,r) + LFE ch, ~384.00 kbps avg | Zamez
Аудио 3: 48 kHz, AC3 Dolby Digital, 3/2 (L,C,R,l,r) + LFE ch, ~640.00 kbps avg | Оригинал
Субтитры: Русские, Английские (full, forced)--

MI:

Format : Matroska
File size : 4.37 GiB
Duration : 2h 6mn
Overall bit rate : 4 953 Kbps
Encoded date : UTC 2011-07-24 13:18:29
Writing application : mkvmerge v4.6.0 ('Still Crazy After All These Years') ñáîðêà îò Apr 1 2011 21:01:49
Writing library : libebml v1.2.0 + libmatroska v1.1.0
Video #1
ID : 1
Format : AVC
Format/Info : Advanced Video Codec
Format profile : [email protected]
Format settings, CABAC : Yes
Format settings, ReFrames : 6 frames
Format settings, GOP : M=1, N=51
Codec ID : V_MPEG4/ISO/AVC
Duration : 2h 6mn
Nominal bit rate : 4 286 Kbps
Width : 1 280 pixels
Height : 536 pixels
Display aspect ratio : 2.40:1
Frame rate : 23.976 fps
Color space : YUV
Chroma subsampling : 4:2:0
Bit depth : 8 bits
Scan type : Progressive
Bits/(Pixel*Frame) : 0.221
Stream size : 3.21 GiB (73%)
Writing library : x264 core 115 r1937 aa21558
Encoding settings : cabac=1 / ref=6 / deblock=1:-2:-2 / analyse=0x3:0x113 / me=umh / subme=9 / psy=1 / psy_rd=1.00:0.00 / mixed_ref=1 / me_range=32 / chroma_me=1 / trellis=2 / 8x8dct=1 / cqm=0 / deadzone=21,11 / fast_pskip=1 / chroma_qp_offset=-2 / threads=6 / sliced_threads=0 / nr=0 / decimate=1 / interlaced=0 / bluray_compat=0 / constrained_intra=0 / bframes=5 / b_pyramid=2 / b_adapt=2 / b_bias=0 / direct=1 / weightb=1 / open_gop=0 / weightp=2 / keyint=250 / keyint_min=23 / scenecut=40 / intra_refresh=0 / rc_lookahead=40 / rc=2pass / mbtree=1 / bitrate=4286 / ratetol=1.0 / qcomp=0.60 / qpmin=0 / qpmax=69 / qpstep=4 / cplxblur=20.0 / qblur=0.5 / ip_ratio=1.40 / aq=1:1.00
Language : English
Audio #2
ID : 2
Format : AC-3
Format/Info : Audio Coding 3
Mode extension : CM (complete main)
Codec ID : A_AC3
Duration : 2h 6mn
Bit rate mode : Constant
Bit rate : 192 Kbps
Channel(s) : 2 channels
Channel positions : Front: L R
Sampling rate : 48.0 KHz
Bit depth : 16 bits
Compression mode : Lossy
Stream size : 174 MiB (4%)
Title : Dub
Language : Russian
Audio #3
ID : 3
Format : AC-3
Format/Info : Audio Coding 3
Mode extension : CM (complete main)
Codec ID : A_AC3
Duration : 2h 6mn
Bit rate mode : Constant
Bit rate : 384 Kbps
Channel(s) : 6 channels
Channel positions : Front: L C R, Side: L R, LFE
Sampling rate : 48.0 KHz
Bit depth : 16 bits
Compression mode : Lossy
Stream size : 347 MiB (8%)
Title : Zamez
Language : Russian
Audio #4
ID : 4
Format : AC-3
Format/Info : Audio Coding 3
Mode extension : CM (complete main)
Codec ID : A_AC3
Duration : 2h 6mn
Bit rate mode : Constant
Bit rate : 640 Kbps
Channel(s) : 6 channels
Channel positions : Front: L C R, Side: L R, LFE
Sampling rate : 48.0 KHz
Bit depth : 16 bits
Compression mode : Lossy
Stream size : 578 MiB (13%)
Title : Original
Language : English
Text #5
ID : 5
Format : UTF-8
Codec ID : S_TEXT/UTF8
Codec ID/Info : UTF-8 Plain Text
Language : Russian
Text #6
ID : 6
Format : UTF-8
Codec ID : S_TEXT/UTF8
Codec ID/Info : UTF-8 Plain Text
Title : forsed
Language : English
Text #7
ID : 7
Format : UTF-8
Codec ID : S_TEXT/UTF8
Codec ID/Info : UTF-8 Plain Text
Title : full
Language : English

Bitrate Viewer:

Скриншоты

     
--

_________________
Скачал - дай другому скачать! Не будь жадиной!


Last edited by Samizdat on 2011-07-24 18:24; edited 3 times in total
Other forum [Profile] [PM]

Haron

Gender:

Longevity: 8 years

Posts: 85

Нарушений: 1

Location: Москвэ

Торрент-статистика

Post 20-Nov-2011 13:55 (after 3 months 26 days)

[Quote]

Ничего так.
В смысле посмотреть можно

_________________
Other forum [Profile] [PM]
Display posts from previous:    
Reply to topic

The time now is: Today 00:48

All times are GMT + 3 Hours



You cannot post new topics in this forum
You cannot reply to topics in this forum
You cannot edit your posts in this forum
You cannot delete your posts in this forum
You cannot vote in polls in this forum
You cannot attach files in this forum
You cannot download files in this forum