Сегодня идет свободное скачивание без начисления Download

Вернёмся осенью (1979) SATRip

Ответить на тему
 
Автор
Сообщение

UndegraundMen ®

Стаж: 5 лет 8 месяцев

Сообщений: 25860

Торрент-статистика

Пост 03-Май-2013 00:00

[Цитировать]

Вернёмся осенью (1979) SATRip Оригинальное название: Вернёмся осенью
Год выпуска: 1979
Жанр: Драма
Описание фильма: Пятеро немолодых уже мужчин сошлись в одном взводе - люди разных профессий и разного общественного положения призваны рядовыми на резервные трехмесячные сборы...
Режиссер: Алексей Симонов
Актеры: Георгий Дрозд, Олег Корчиков, Игорь Васильев (озвучание - Юрий Демич), Валентин Голубенко, Михаил Данилов, Ирина Мирошниченко, Игорь Молодчинин, Геннадий Егоров, Юрий Соловьёв, Алексей Кожевников, Эммануил Левин, Светлана Акимова, Валентина Пугачёва, Любовь Тищенко, Марина Юрасова, Ольга Волкова
Продолжительность: 01:24:22

Видеокодек: XviD MPEG-4
Битрейт видео: ~1095 kbps
Размер кадра: 640x496
Качество видео: SATRip
Аудиокодек: MPEG Layer 3, 2 ch,
Битрейт аудио: ~128.00 kbps

MI

Общее
Полное имя : C:\Users\1\Downloads\Вернемся осенью.avi
Формат : AVI
Формат/Информация : Audio Video Interleave
Размер файла : 744 Мбайт
Продолжительность : 1 ч. 24 м.
Общий поток : 1234 Кбит/сек
Название фильма : Вернемся осенью.SATRip.Xvid.MP3-R.G.SovKino
Режиссёр : AMELJ
Программа кодирования : VirtualDubMod 1.5.10.3 | www.virtualdub-fr.org || (build 2550/release)
Правообладатель : R.G.SovKino
Примечание : спам
Видео
Идентификатор : 0
Формат : MPEG-4 Visual
Профиль формата : Advanced [email protected]
Параметр BVOP формата : 2
Параметр QPel формата : Нет
Параметр GMC формата : Без точки перехода
Параметр матрицы формата : Выборочная
Идентификатор кодека : XVID
Идентификатор кодека/Подсказка : XviD
Продолжительность : 1 ч. 24 м.
Битрейт : 1096 Кбит/сек
Ширина : 640 пикселей
Высота : 496 пикселей
Соотношение сторон : 1,290
Частота кадров : 25,000 кадров/сек
Цветовое пространство : YUV
Субдискретизация насыщенности : 4:2:0
Битовая глубина : 8 бит
Тип развёртки : Прогрессивная
Метод сжатия : С потерями
Бит/(Пиксели*Кадры) : 0.138
Размер потока : 661 Мбайт (89%)
Библиотека кодирования : XviD 65
Аудио
Идентификатор : 1
Формат : MPEG Audio
Версия формата : Version 1
Профиль формата : Layer 3
Идентификатор кодека : 55
Идентификатор кодека/Подсказка : MP3
Продолжительность : 1 ч. 24 м.
Вид битрейта : Постоянный
Битрейт : 128 Кбит/сек
Каналы : 2 канала
Частота : 48,0 КГц
Метод сжатия : С потерями
Размер потока : 77,2 Мбайт (10%)
Выравнивание : Соединение по промежуткам
Продолжительность промежутка : 40 мс. (1,00 видеокадр)
Время предзагрузки промежутка : 504 мс.
Библиотека кодирования : L3.99r
Настройки программы : -m s -V 4 -q 2 -lowpass 17 -b 128
Скриншоты:
         
Время раздачи: 24/7
Вне форума [Профиль] [ЛС]
Показать сообщения:    
Ответить на тему

Текущее время: Сегодня 18:44

Часовой пояс: GMT + 3



Вы не можете начинать темы
Вы не можете отвечать на сообщения
Вы не можете редактировать свои сообщения
Вы не можете удалять свои сообщения
Вы не можете голосовать в опросах
Вы не можете прикреплять файлы к сообщениям
Вы не можете скачивать файлы