Сегодня идет свободное скачивание без начисления Download

Небесный тихоход (1945) BDRip [720p] [Цветная версия]

Ответить на тему
 
Автор
Сообщение

UndegraundMen ®

Стаж: 5 лет 9 месяцев

Сообщений: 25860

Торрент-статистика

Пост 03-Май-2013 00:00

[Цитировать]

Небесный тихоход (1945) BDRip [720p] [Цветная версия]-Полная реставрация изображения и звука. Исходные киноматериалы подготовлены Госфильмофондом России.
Покадровая цифровая реставрация изображения, ремастеринг звука и авторинг проведены объединением «Крупный план».
- Русское название: Небесный тихоход
Год выпуска: 1945
Жанр: Военный, Комедия
Описание фильма:
Три друга, летчики-офицеры, поклялись не любить до конца войны. Однако военная служба познакомила их с летчицами женской эскадрильи. И друзья один за другим начали сдавать свои позиции.
После тяжелого ранения летчик Булочкин вынужден летать не на скоростном истребителе, а на «тихоходе» У-2. Привыкший к опасностям Булочкин с трудом привыкает к спокойной жизни в эскадрилье, где большинство летчиков - девушки. Но вскоре становится ясно, что на войне важны и «тихоходы».
Режиссер: Семен Тимошенко
Актеры: Николай Крючков, Василий Меркурьев, Василий Нещипленко, Алла Парфаньяк, Людмила Глазова, Тамара Алешина, Яков Гудкин, Фаина Раневская, Константин Скоробогатов, Семен Тимошенко

Продолжительность: 01:23:19
Качество видео: BDRip [720p]
Видео: AVC, 936x720 (1.300), 23.976 fps, 5 000 Kbps (0.309 bit/pixel)
Аудио: AC-3, 48.0 KHz, 6 ch, 448 Kbps, CBR

МедиаИнфо:

Видео
Идентификатор : 1
Формат : AVC
Формат/Информация : Advanced Video Codec
Профиль формата : [url=mailto:[email protected]][email protected][/url]
Параметр CABAC формата : Да
Параметр ReFrames формата : 9 кадров
Идентификатор кодека : V_MPEG4/ISO/AVC
Продолжительность : 1 ч. 23 м.
Битрейт : 5000 Кбит/сек
Ширина : 936 пикселей
Высота : 720 пикселей
Соотношение сторон : 4:3
Режим частоты кадров : Постоянный
Частота кадров : 23,976 кадра/сек
Цветовое пространство : YUV
Субдискретизация насыщенности : 4:2:0
Битовая глубина : 8 бит
Тип развёртки : Прогрессивная
Бит/(Пиксели*Кадры) : 0.309
Размер потока : 2,85 Гбайт (90%)
Библиотека кодирования : x264 core 130 r2273 b3065e6
Настройки программы : cabac=1 / ref=9 / deblock=1:-3:-2 / analyse=0x3:0x133 / me=umh / subme=11 / psy=1 / psy_rd=1.00:0.15 / mixed_ref=1 / me_range=48 / chroma_me=1 / trellis=2 / 8x8dct=1 / cqm=0 / deadzone=21,11 / fast_pskip=0 / chroma_qp_offset=-3 / threads=6 / lookahead_threads=1 / sliced_threads=0 / nr=0 / decimate=0 / interlaced=0 / bluray_compat=0 / constrained_intra=0 / bframes=8 / b_pyramid=2 / b_adapt=2 / b_bias=0 / direct=3 / weightb=1 / open_gop=0 / weightp=2 / keyint=240 / keyint_min=23 / scenecut=40 / intra_refresh=0 / rc=2pass / mbtree=0 / bitrate=5000 / ratetol=1.0 / qcomp=0.60 / qpmin=0 / qpmax=69 / qpstep=4 / cplxblur=20.0 / qblur=0.5 / ip_ratio=1.40 / pb_ratio=1.30 / aq=1:0.80
Язык : Spanish
Default : Да
Forced : Нет
Аудио
Идентификатор : 2
Формат : AC-3
Формат/Информация : Audio Coding 3
Расширение режима : CM (complete main)
Параметр Endianness формата : Big
Идентификатор кодека : A_AC3
Продолжительность : 1 ч. 23 м.
Вид битрейта : Постоянный
Битрейт : 448 Кбит/сек
Каналы : 6 каналов
Расположение каналов : Front: L C R, Side: L R, LFE
Частота : 48,0 КГц
Битовая глубина : 16 бит
Метод сжатия : С потерями
Размер потока : 267 Мбайт (8%)
Язык : Russian
Default : Да
Forced : Нет

Знаете ли Вы, что...

  • В сценах празднования встречи лётчиков и лётчиц снимались артисты танцевального коллектива под руководством Аркадия Обранта. Он возник незадолго до войны в Ленинградском Дворце пионеров, был воссоздан в годы войны, провёл около трех тысяч выступлений в воинских частях и в осаждённом Ленинграде.
  • В самом начале картины можно увидеть разрушенный Большой дворец Петергофа — так он выглядел в 1945 году до начала всех восстановительных работ.
  • Фильм восстановлен на киностудии «Ленфильм» в 1970 году.
  • После съемок Крючков развелся со своей первой женой, и женился на актрисе Алле Парфаньяк, исполнявшей главную роль. С ней он прожил 10 лет.
Скриншоты:
         
         
Вне форума [Профиль] [ЛС]
Показать сообщения:    
Ответить на тему

Текущее время: Сегодня 22:46

Часовой пояс: GMT + 3



Вы не можете начинать темы
Вы не можете отвечать на сообщения
Вы не можете редактировать свои сообщения
Вы не можете удалять свои сообщения
Вы не можете голосовать в опросах
Вы не можете прикреплять файлы к сообщениям
Вы не можете скачивать файлы