Сегодня идет свободное скачивание без начисления Download

Небесный тихоход (1945) BDRip [Цветная версия]

Ответить на тему
 
Автор
Сообщение

UndegraundMen ®

Стаж: 5 лет 7 месяцев

Сообщений: 25860

Торрент-статистика

Пост 03-Май-2013 00:00

[Цитировать]

Небесный тихоход (1945) BDRip [Цветная версия]-Полная реставрация изображения и звука. Исходные киноматериалы подготовлены Госфильмофондом России.
Покадровая цифровая реставрация изображения, ремастеринг звука и авторинг проведены объединением «Крупный план».
- Русское название: Небесный тихоход
Год выпуска: 1945
Жанр: Военный, Комедия
Описание фильма:
Три друга, летчики-офицеры, поклялись не любить до конца войны. Однако военная служба познакомила их с летчицами женской эскадрильи. И друзья один за другим начали сдавать свои позиции.
После тяжелого ранения летчик Булочкин вынужден летать не на скоростном истребителе, а на «тихоходе» У-2. Привыкший к опасностям Булочкин с трудом привыкает к спокойной жизни в эскадрилье, где большинство летчиков - девушки. Но вскоре становится ясно, что на войне важны и «тихоходы».
Режиссер: Семен Тимошенко
Актеры: Николай Крючков, Василий Меркурьев, Василий Нещипленко, Алла Парфаньяк, Людмила Глазова, Тамара Алешина, Яков Гудкин, Фаина Раневская, Константин Скоробогатов, Семен Тимошенко

Продолжительность: 01:23:19
Качество видео: BDRip
Видео: MPEG4, XviD, 720x544 (4:3), 23.976 fps, 1 891 Kbps (0.201 bit/pixel)
Аудио: AC-3, 48.0 KHz, 6 ch, 448 Kbps, CBR

МедиаИнфо:

Видео
Идентификатор : 0
Формат : MPEG-4 Visual
Профиль формата : Advanced [email protected]
Параметр BVOP формата : 1
Параметр QPel формата : Нет
Параметр GMC формата : Без точки перехода
Параметр матрицы формата : Выборочная
Идентификатор кодека : XVID
Идентификатор кодека/Подсказка : XviD
Продолжительность : 1 ч. 23 м.
Битрейт : 1891 Кбит/сек
Ширина : 720 пикселей
Высота : 544 пикселя
Соотношение сторон : 4:3
Частота кадров : 23,976 кадра/сек
Цветовое пространство : YUV
Субдискретизация насыщенности : 4:2:0
Битовая глубина : 8 бит
Тип развёртки : Прогрессивная
Метод сжатия : С потерями
Бит/(Пиксели*Кадры) : 0.201
Размер потока : 1,10 Гбайт (81%)
Библиотека кодирования : XviD 1.2.1 (UTC 2008-12-04)
Аудио
Идентификатор : 1
Формат : AC-3
Формат/Информация : Audio Coding 3
Расширение режима : CM (complete main)
Параметр Endianness формата : Big
Идентификатор кодека : 2000
Продолжительность : 1 ч. 23 м.
Вид битрейта : Постоянный
Битрейт : 448 Кбит/сек
Каналы : 6 каналов
Расположение каналов : Front: L C R, Side: L R, LFE
Частота : 48,0 КГц
Битовая глубина : 16 бит
Метод сжатия : С потерями
Задержка видео : 15 мс.
Размер потока : 267 Мбайт (19%)
Выравнивание : Разделение по промежуткам
Продолжительность промежутка : 42 мс. (1,00 видеокадр)
Время предзагрузки промежутка : 500 мс.

Знаете ли Вы, что...

  • В сценах празднования встречи лётчиков и лётчиц снимались артисты танцевального коллектива под руководством Аркадия Обранта. Он возник незадолго до войны в Ленинградском Дворце пионеров, был воссоздан в годы войны, провёл около трех тысяч выступлений в воинских частях и в осаждённом Ленинграде.
  • В самом начале картины можно увидеть разрушенный Большой дворец Петергофа — так он выглядел в 1945 году до начала всех восстановительных работ.
  • Фильм восстановлен на киностудии «Ленфильм» в 1970 году.
  • После съемок Крючков развелся со своей первой женой, и женился на актрисе Алле Парфаньяк, исполнявшей главную роль. С ней он прожил 10 лет.
Скриншоты:
         
         
Вне форума [Профиль] [ЛС]
Показать сообщения:    
Ответить на тему

Текущее время: Сегодня 03:59

Часовой пояс: GMT + 3



Вы не можете начинать темы
Вы не можете отвечать на сообщения
Вы не можете редактировать свои сообщения
Вы не можете удалять свои сообщения
Вы не можете голосовать в опросах
Вы не можете прикреплять файлы к сообщениям
Вы не можете скачивать файлы