Сегодня идет свободное скачивание без начисления Download

Стряпуха (1965) HDTVRip

Ответить на тему
 
Автор
Сообщение

UndegraundMen ®

Стаж: 5 лет 7 месяцев

Сообщений: 25860

Торрент-статистика

Пост 03-Май-2013 00:00

[Цитировать]

Стряпуха (1965) HDTVRip Оригинальное название: Стряпуха
Год выпуска: 1965
Жанр: Комедия, мелодрама
Описание фильма: Комбайнер Степан Казанец, влюбившийся в молодую вдову Павлину Хуторную, крепко получил от неё по голове половником. После скандальной истории, ставшей известной на весь Каневский район, красивая казачка покинула станицу и устроилась на полевом стане стряпухой. Казанец не мог страдать и жить вдали от любимой - и отправился следом...
Режиссер: Эдмонд Кеосаян
Актеры: Светлана Светличная, Людмила Хитяева, Инна Чурикова, Константин Сорокин, Георгий Юматов, Иван Савкин, Людмила Марченко, Людмила Карауш, Владимир Высоцкий, Нина Никитина, Валентина Березуцкая, Григорий Михайлов, Зоя Фёдорова, Сергей Филиппов, Павел Шпрингфельд, Эдуард Абалов, Валерий Носик, Владимир Колокольцев, Владимир Сошальский, Владимир Дорофеев, Вера Бурлакова
Продолжительность: 01:06:49

Видеокодек: XviD
Битрейт видео: ~1417 kbps
Размер кадра: 704x400
Качество видео: HDTVRip
Аудиокодек: MPEG Layer 3, 2 ch,
Битрейт аудио: ~128.00 kbps

MI

Общее
Полное имя : C:\Users\1\Downloads\Стряпуха.avi
Формат : AVI
Формат/Информация : Audio Video Interleave
Размер файла : 743 Мбайт
Продолжительность : 1 ч. 6 м.
Общий поток : 1556 Кбит/сек
Название фильма : Стряпуха.HDTVRip.Xvid.MP3-R.G.Kino-USSR-[спам]
Режиссёр : AMELJ
Программа кодирования : VirtualDubMod 1.5.10.3 | www.virtualdub-fr.org || (build 2550/release)
Правообладатель : R.G.Kino-USSR
Примечание : спам
Видео
Идентификатор : 0
Формат : MPEG-4 Visual
Профиль формата : Advanced [email protected]
Параметр BVOP формата : 2
Параметр QPel формата : Нет
Параметр GMC формата : Без точки перехода
Параметр матрицы формата : Выборочная
Идентификатор кодека : XVID
Идентификатор кодека/Подсказка : XviD
Продолжительность : 1 ч. 6 м.
Битрейт : 1418 Кбит/сек
Ширина : 704 пикселя
Высота : 400 пикселей
Соотношение сторон : 16:9
Частота кадров : 25,000 кадров/сек
Цветовое пространство : YUV
Субдискретизация насыщенности : 4:2:0
Битовая глубина : 8 бит
Тип развёртки : Прогрессивная
Метод сжатия : С потерями
Бит/(Пиксели*Кадры) : 0.201
Размер потока : 678 Мбайт (91%)
Библиотека кодирования : XviD 65
Аудио
Идентификатор : 1
Формат : MPEG Audio
Версия формата : Version 1
Профиль формата : Layer 3
Режим : Joint stereo
Расширение режима : MS Stereo
Идентификатор кодека : 55
Идентификатор кодека/Подсказка : MP3
Продолжительность : 1 ч. 6 м.
Вид битрейта : Постоянный
Битрейт : 128 Кбит/сек
Каналы : 2 канала
Частота : 48,0 КГц
Метод сжатия : С потерями
Размер потока : 61,2 Мбайт (8%)
Выравнивание : Соединение по промежуткам
Продолжительность промежутка : 40 мс. (1,00 видеокадр)
Время предзагрузки промежутка : 504 мс.
Библиотека кодирования : LAME3.99r
Настройки программы : -m j -V 4 -q 2 -lowpass 17 -b 128
Скриншоты:
         
Время раздачи: 24/7
Вне форума [Профиль] [ЛС]
Показать сообщения:    
Ответить на тему

Текущее время: Сегодня 02:15

Часовой пояс: GMT + 3



Вы не можете начинать темы
Вы не можете отвечать на сообщения
Вы не можете редактировать свои сообщения
Вы не можете удалять свои сообщения
Вы не можете голосовать в опросах
Вы не можете прикреплять файлы к сообщениям
Вы не можете скачивать файлы