Сегодня идет свободное скачивание без начисления Download

Каждый день доктора Калинниковой (1973) SATRip

Ответить на тему
 
Автор
Сообщение

UndegraundMen ®

Стаж: 5 лет 9 месяцев

Сообщений: 25860

Торрент-статистика

Пост 03-Май-2013 00:00

[Цитировать]

Каждый день доктора Калинниковой (1973) SATRip Оригинальное название: Каждый день доктора Калинниковой
Год выпуска: 1973
Жанр: Драма
Описание фильма: Из центра приезжает комиссия с установкой прекратить «ненаучные» эксперименты доктора Калинниковой. Но, пообщавшись с ее пациентами и коллегами, ознакомившись с результатами операций, они приходят к выводу, что Калинникова — подвижник и редкий талант.
Прообраз доктора Калинниковой — известный уральский медик-экспериментатор Гавриил Илизаров, мировое признание к которому пришло после фильма. В отделе науки ЦК КПСС было сказано: «Этот шарлатан Илизаров не будет на экране!» — после чего режиссер принял решение «замаскировать» героя под доктора Калиникову.
Режиссер: Виктор Титов
Актеры: Ия Саввина, Валерий Золотухин, Александр Калягин, Ольга Гобзева, Эльза Леждей, Игорь Ясулович, Александр Александровский, Валентин Вершинин, Алла Мещерякова, Александр Орлов, Виктор Хохряков, Ксения Бороздина, Генриетта Егорова
Продолжительность: 01:28:19

Видеокодек: XviD MPEG-4
Битрейт видео: ~1850 kbps
Размер кадра: 704x320 (2.20:1)
Качество видео: SATRip
Аудиокодек: MPEG Layer 3, 2 ch,
Битрейт аудио: ~128.00 kbps

MI

Общее
Полное имя : G:\Фильмы наши\Каждый день доктора Калинниковой .avi
Формат : AVI
Формат/Информация : Audio Video Interleave
Размер файла : 1,23 Гбайт
Продолжительность : 1 ч. 28 м.
Общий поток : 1988 Кбит/сек
Название фильма :
Программа кодирования : VirtualDubMod 1.5.10.2 (build 2540/release)
Видео
Идентификатор : 0
Формат : MPEG-4 Visual
Профиль формата : Advanced [email protected]
Параметр BVOP формата : 2
Параметр QPel формата : Нет
Параметр GMC формата : Без точки перехода
Параметр матрицы формата : Default (MPEG)
Режим смешивания : Сжатый битовый поток
Идентификатор кодека : XVID
Идентификатор кодека/Подсказка : XviD
Продолжительность : 1 ч. 28 м.
Битрейт : 1850 Кбит/сек
Ширина : 704 пикселя
Высота : 320 пикселей
Соотношение сторон : 2,2:1
Частота кадров : 25,000 кадров/сек
Цветовое пространство : YUV
Субдискретизация насыщенности : 4:2:0
Битовая глубина : 8 бит
Тип развёртки : Прогрессивная
Метод сжатия : С потерями
Бит/(Пиксели*Кадры) : 0.329
Размер потока : 1,14 Гбайт (93%)
Библиотека кодирования : XviD 1.2.1 (UTC 2008-12-04)
Аудио
Идентификатор : 1
Формат : MPEG Audio
Версия формата : Version 1
Профиль формата : Layer 3
Режим : Joint stereo
Расширение режима : MS Stereo
Идентификатор кодека : 55
Идентификатор кодека/Подсказка : MP3
Продолжительность : 1 ч. 28 м.
Вид битрейта : Постоянный
Битрейт : 128 Кбит/сек
Каналы : 2 канала
Частота : 48,0 КГц
Метод сжатия : С потерями
Размер потока : 80,9 Мбайт (6%)
Выравнивание : Соединение по промежуткам
Продолжительность промежутка : 40 мс. (1,00 видеокадр)
Время предзагрузки промежутка : 504 мс.
Скриншоты:
       
   
Время раздачи: 24/7
Вне форума [Профиль] [ЛС]
Показать сообщения:    
Ответить на тему

Текущее время: Сегодня 16:32

Часовой пояс: GMT + 3



Вы не можете начинать темы
Вы не можете отвечать на сообщения
Вы не можете редактировать свои сообщения
Вы не можете удалять свои сообщения
Вы не можете голосовать в опросах
Вы не можете прикреплять файлы к сообщениям
Вы не можете скачивать файлы