Сегодня идет свободное скачивание без начисления Download

Прости - прощай (1979) TVRip

Ответить на тему
 
Автор
Сообщение

UndegraundMen ®

Стаж: 5 лет 9 месяцев

Сообщений: 25860

Торрент-статистика

Пост 03-Май-2013 00:00

[Цитировать]

Прости - прощай (1979) TVRip Оригинальное название: Прости - прощай
Год выпуска: 1979
Жанр: Драма
Описание фильма: Всю жизнь прожил дед Василий в деревенском доме, который своими руками и построил. Здесь он вырос, женился, растил детей, здесь и Родину защищал во время Великой Отечественной. Прошло время, и деревню эту вместе с его домом решили снести, а местных жителей в город переселить. Но не может он так просто бросить все и уехать, ведь здесь ему дорог каждый кустик, каждый камень и те четыре березки, что посажены в память о погибших в последней войне четырех его сыновьях. Многие соседи уже выехали. И только когда умирает жена, старик все-таки принимает решение. Но решает он по-своему...
Режиссер: Георгий Кузнецов
Актеры: Михаил Кузнецов, Мария Пастухова, Мария Скворцова, Ваня Иванов, Леонид Оболенский, Борис Заволокин, Марина Аничкова, Сергей Сметанин, Вова Митюков, Стяпонас Космаускас, Наталья Захарова, Марина Яковенко, Елена Говорухина
Продолжительность: 01:10:42

Видеокодек: XviD
Битрейт видео: ~2011 kbps
Размер кадра: 688x384
Качество видео: TVRip
Аудиокодек: MPEG Layer 3, 2 ch,
Битрейт аудио: ~192.00 kbps

MI

Общее
Полное имя : C:\Users\1\Downloads\Prosti-proschay.avi
Формат : AVI
Формат/Информация : Audio Video Interleave
Размер файла : 1,09 Гбайт
Продолжительность : 1 ч. 10 м.
Общий поток : 2213 Кбит/сек
Программа кодирования : VirtualDubModRus 1.5.10.2 (build 2542/release)
Библиотека кодирования : VirtualDubMod build 2542/release
Видео
Идентификатор : 0
Формат : MPEG-4 Visual
Профиль формата : Advanced [email protected]
Параметр BVOP формата : 2
Параметр QPel формата : Нет
Параметр GMC формата : Без точки перехода
Параметр матрицы формата : Default (H.263)
Режим смешивания : Сжатый битовый поток
Идентификатор кодека : XVID
Идентификатор кодека/Подсказка : XviD
Продолжительность : 1 ч. 10 м.
Битрейт : 2011 Кбит/сек
Ширина : 688 пикселей
Высота : 384 пикселя
Соотношение сторон : 16:9
Частота кадров : 25,000 кадров/сек
Цветовое пространство : YUV
Субдискретизация насыщенности : 4:2:0
Битовая глубина : 8 бит
Тип развёртки : Прогрессивная
Метод сжатия : С потерями
Бит/(Пиксели*Кадры) : 0.304
Размер потока : 1017 Мбайт (91%)
Библиотека кодирования : XviD 63
Аудио
Идентификатор : 1
Формат : MPEG Audio
Версия формата : Version 1
Профиль формата : Layer 3
Идентификатор кодека : 55
Идентификатор кодека/Подсказка : MP3
Продолжительность : 1 ч. 10 м.
Вид битрейта : Постоянный
Битрейт : 192 Кбит/сек
Каналы : 2 канала
Частота : 48,0 КГц
Метод сжатия : С потерями
Размер потока : 97,1 Мбайт (9%)
Выравнивание : Соединение по промежуткам
Продолжительность промежутка : 40 мс. (1,00 видеокадр)
Время предзагрузки промежутка : 504 мс.
Библиотека кодирования : LAME3.97
Настройки программы : -m s -V 4 -q 1 -b 192
Скриншоты:
         
Время раздачи: 24/7
Вне форума [Профиль] [ЛС]
Похожие темы
Форум Тема Автор Торрент Отв. Посл. сообщение
./templates/default/images/folder_dl.gif Обучающее видео Анна Лукьянова | Соблазни мечту 2.0. Простые шаги от знакомства с девушкой до близости (2012) CamRip Omen
1 | 0

0 | 880

9

2014-12-22 21:12
Omen Последнее
./templates/default/images/folder_dl.gif Обучающее видео Центр «Специалист» | Об IP-адресации по-простому (2014) PCRec Omen
1 | 0

0 | 1590

69

2015-03-03 19:29
Omen Последнее
./templates/default/images/folder_dl.gif Обучающее видео Роман Некрасов | 5 простых деиствий, которые помогут попасть в Осознанное сновидение (2015) PCRec Omen
1 | 0

0 | 214

14

2015-05-11 18:37
Omen Последнее
./templates/default/images/folder_dl.gif Психология, Тренинг, Саморазвитие МИФ. ЗОЖ - Кэмпбелл Т. - Китайское исследование на практике. Простой переход к здоровому образу жизни. [2015, PDF, RUS] Omen
1 | 0

0 | 548

4

2015-12-01 18:00
Omen Последнее
./templates/default/images/folder_dl.gif Обучающее видео Авито-заработок 2.0 или как зарабатывать 18350 в неделю на простой доске объявлений AVITO [2015, заработок в интернете, DVDRip, RUS] (Видеоурок) Omen
0 | 1

0 | 734

7

2016-01-13 18:00
Omen Последнее
./templates/default/images/folder_dl.gif Философия, Религия, Эзотерика Дугин А.Г. - Ноомахия: войны ума. Логос Европы: средиземноморская цивилизация во времени и пространстве. [2014, DjVu, RUS] Omen
1 | 0

0 | 996

0

2016-09-19 01:00
Omen Последнее
./templates/default/images/folder_dl.gif Разное Оксана Сергеева | Язык жестов. Как читать мысли без слов? 49 простых правил (2008) [FB2] }{@R0N
1 | 0

0 | 1203

3

2017-12-16 16:39
}{@R0N Последнее
./templates/default/images/folder_dl.gif Техническая и научно-популярная литература Паоло Аливерти | Электроника для начинающих. Самый простой пошаговый самоучитель (2018) [PDF] }{@R0N
2 | 0

0 | 121702

24

2018-06-09 22:47
}{@R0N Последнее
Показать сообщения:    
Ответить на тему

Текущее время: Сегодня 16:04

Часовой пояс: GMT + 3



Вы не можете начинать темы
Вы не можете отвечать на сообщения
Вы не можете редактировать свои сообщения
Вы не можете удалять свои сообщения
Вы не можете голосовать в опросах
Вы не можете прикреплять файлы к сообщениям
Вы не можете скачивать файлы