Today is a free download without charge Download

Непокоренный / Unbowed / Bu-reo-jin hwa-sa (Чжи-Ен Жонг / Ji-yeong Jeong) [2011, Южная Корея, драма, BDRip 1080p] DVO (den904 и DeadSno) + Sub Eng

Reply to topic
 
Author
Message

Omen ®

Longevity: 8 years 5 months

Posts: 181087

Торрент-статистика

Post 02-May-2013 21:52

[Quote]

Непокоренный / Unbowed / Bu-reo-jin hwa-sa
Страна: Южная Корея
Жанр: драма
Год выпуска: 2011
Продолжительность: 01:42:00
Перевод: Любительский (двухголосый закадровый) den904 и DeadSno
Cубтитры: английские
Оригинальная аудиодорожка: корейский
Режиссер: Чжи-Ен Жонг / Ji-yeong Jeong
В ролях: Ан Сон Ги, Пак Вон Сан, На Ён Хи, Джи-хо Ким...
Описание: В 1995 году профессор Ким заявил, что в экзаменационной работе для поступающих в вузы присутствует серьезная математическая ошибка. Его не стали слушать, просто уволили с работы. Профессор подал в суд на бывшее начальство, но проиграл. 12 лет спустя судья, вынесший вердикт по этому делу, встретил профессора в темном коридоре и с ужасом обнаружил, что у того в руках арбалет…
Сэмпл: http://multi-up.com/861434
Качество видео: BDRip 1080p
Формат видео: MKV
Видео: MPEG4 Video (H264), 1916x820, (16:9), 23.976 fps, 8.9 Mbps, 0.24 bit/pixel
Аудио: Русский / Dolby Digital Audio / 48 kHz / 6 ch / 448.00 kbps avg
Аудио 2: Korean / DTS / 5.1 / 48 kHz / 6 ch / 1509 kbps / 24-bit
Доп. информация о субтитрах: English

MediaInfo

General
Unique ID : 188560079951231539442117034504887564788 (0x8DDB59B5BDF393D98EF8C9A5B6D179F4)
Complete name : C:\Unbowed.2012.BDRip_1080p.DTS.x264-LooKMaNe.mkv
Format : Matroska
Format version : Version 4 / Version 2
File size : 7.91 GiB
Duration : 1h 42mn
Overall bit rate : 11.1 Mbps
Encoded date : UTC 2013-05-02 16:46:13
Writing application : mkvmerge v6.2.0 ('Promised Land') built on Apr 28 2013 12:22:01
Writing library : libebml v1.3.0 + libmatroska v1.4.0
Video
ID : 1
Format : AVC
Format/Info : Advanced Video Codec
Format profile : [email protected]
Format settings, CABAC : Yes
Format settings, ReFrames : 5 frames
Codec ID : V_MPEG4/ISO/AVC
Duration : 1h 42mn
Bit rate : 8 908 Kbps
Width : 1 916 pixels
Height : 820 pixels
Display aspect ratio : 2.35:1
Frame rate mode : Constant
Frame rate : 23.976 fps
Color space : YUV
Chroma subsampling : 4:2:0
Bit depth : 8 bits
Scan type : Progressive
Bits/(Pixel*Frame) : 0.236
Stream size : 6.36 GiB (80%)
Writing library : x264 core 132 r2309 3b1f1f7
Encoding settings : cabac=1 / ref=5 / deblock=1:-1:-1 / analyse=0x3:0x133 / me=umh / subme=11 / psy=1 / psy_rd=1.00:0.15 / mixed_ref=1 / me_range=32 / chroma_me=1 / trellis=2 / 8x8dct=1 / cqm=0 / deadzone=21,11 / fast_pskip=0 / chroma_qp_offset=-3 / threads=12 / lookahead_threads=2 / sliced_threads=0 / nr=0 / decimate=1 / interlaced=0 / bluray_compat=0 / constrained_intra=0 / bframes=7 / b_pyramid=2 / b_adapt=2 / b_bias=0 / direct=3 / weightb=1 / open_gop=0 / weightp=2 / keyint=240 / keyint_min=23 / scenecut=40 / intra_refresh=0 / rc_lookahead=60 / rc=crf / mbtree=1 / crf=17.0 / qcomp=0.60 / qpmin=0 / qpmax=69 / qpstep=4 / vbv_maxrate=62500 / vbv_bufsize=78125 / crf_max=0.0 / nal_hrd=none / ip_ratio=1.40 / aq=1:1.00
Default : Yes
Forced : No
Audio #1
ID : 2
Format : AC-3
Format/Info : Audio Coding 3
Mode extension : CM (complete main)
Format settings, Endianness : Big
Codec ID : A_AC3
Duration : 1h 42mn
Bit rate mode : Constant
Bit rate : 448 Kbps
Channel(s) : 6 channels
Channel positions : Front: L C R, Side: L R, LFE
Sampling rate : 48.0 KHz
Bit depth : 16 bits
Compression mode : Lossy
Delay relative to video : 18s 0ms
Stream size : 327 MiB (4%)
Language : Russian
Default : Yes
Forced : No
Audio #2
ID : 3
Format : DTS
Format/Info : Digital Theater Systems
Mode : 16
Format settings, Endianness : Big
Codec ID : A_DTS
Duration : 1h 42mn
Bit rate mode : Constant
Bit rate : 1 509 Kbps
Channel(s) : 6 channels
Channel positions : Front: L C R, Side: L R, LFE
Sampling rate : 48.0 KHz
Bit depth : 24 bits
Compression mode : Lossy
Stream size : 1.08 GiB (14%)
Language : Korean
Default : No
Forced : No
Text
ID : 4
Format : UTF-8
Codec ID : S_TEXT/UTF8
Codec ID/Info : UTF-8 Plain Text
Language : English
Default : No
Forced : No

Скриншот c названием фильма

Скриншоты

Other forum [Profile] [PM]
Display posts from previous:    
Reply to topic

The time now is: Today 00:46

All times are GMT + 3 Hours



You cannot post new topics in this forum
You cannot reply to topics in this forum
You cannot edit your posts in this forum
You cannot delete your posts in this forum
You cannot vote in polls in this forum
You cannot attach files in this forum
You cannot download files in this forum