Today is a free download without charge Download

Восемь выходят из игры / Команда вне игры / Eight Men Out (Джон Сэйлз / John Sayles) [1988, США, драма, история, спорт, HDTVRip 720p] DVO + Sub Eng + Original Eng

Reply to topic
 
Author
Message

Omen ®

Longevity: 8 years 5 months

Posts: 181087

Торрент-статистика

Post 02-May-2013 21:52

[Quote]

Восемь выходят из игры / Команда вне игры / Eight Men Out
Страна: США
Жанр: драма, история, спорт
Год выпуска: 1988
Продолжительность: 01:59:49
Перевод: Профессиональный (двухголосый закадровый)
Cубтитры: английские
Оригинальная аудиодорожка: английский
Режиссер: Джон Сэйлз / John Sayles
В ролях: Джейс Александр, Джон Кьюсак, Гордон Клэпп, Дон Харви, Билл Ирвин, Перри Лэнг, Джон Махони, Джеймс Рид, Майкл Рукер, Чарли Шин
Описание: Фильм поставлен по документальной книге Элиота Эсинофа. Это реальные событиях 1919 г., скандал в бейсбольной команде Chicago White Sox, который получил название Black Sox scandal. Игроков «Чикаго Уайт Сокс» уличили в подкупе накануне важнейшего матча. Фильм-драма о давлении спортивных мафиози на малооплачиваемых игроков. Прекрасная игра актёров, отлично передана изнанка профессионального спорта.
Сэмпел:http://sendfile.su/804723
Тип релиза: HDTVRip 720p
Контейнер: MKV
Видео: x264, 5450 Kbps, 1280x720 (16:9), at 23.976 fps, AVC ([email protected]) (CABAC / 3 Ref Frames), DXVA
Аудио: Russian: AC3, 192 Kbps, 48.0 KHz, 2 channels - MVO
Аудио 2: English: AC3, 384 Kbps, 48.0 KHz, 2 channels

MediaInfo

Общее
Уникальный идентификатор : 252076681986050755870843249702855938638 (0xBDA433F8960438959382A818C566924E)
Полное имя : C:\Users\ЯРОСЛАВ\Desktop\фото\Eight.Men.Out.1988.HDTVRip.720p.x264.Rus.Eng.Ger.-CMEGroup.-BLUEBIRD-HD (1).mkv
Формат : Matroska
Версия формата : Version 2
Размер файла : 5,15 Гбайт
Продолжительность : 1 ч. 59 м.
Режим общего битрейта : Переменный
Общий поток : 6158 Кбит/сек
Название фильма : Eight.Men.Out.1988.HDTVRip.720p.x264.Rus.Eng.Ger.-CME-v0
Дата кодирования : UTC 2013-05-02 15:39:20
Программа кодирования : mkvmerge v5.4.0 ('Piper') built on Mar 10 2012 13:34:39
Библиотека кодирования : libebml v1.2.3 + libmatroska v1.3.0
Видео
Идентификатор : 1
Формат : AVC
Формат/Информация : Advanced Video Codec
Профиль формата : [email protected]
Параметр CABAC формата : Да
Параметр ReFrames формата : 3 кадра
Режим смешивания : Header stripping
Идентификатор кодека : V_MPEG4/ISO/AVC
Продолжительность : 1 ч. 59 м.
Вид битрейта : Переменный
Битрейт : 5460 Кбит/сек
Максимальный битрейт : 40,0 Мбит/сек
Ширина : 1280 пикселей
Высота : 720 пикселей
Соотношение сторон : 16:9
Режим частоты кадров : Постоянный
Частота кадров : 23,976 кадра/сек
Цветовое пространство : YUV
Субдискретизация насыщенности : 4:2:0
Битовая глубина : 8 бит
Тип развёртки : Прогрессивная
Бит/(Пиксели*Кадры) : 0.247
Размер потока : 4,57 Гбайт (89%)
Заголовок : Eight.Men.Out.1988.HDTVRip.720p.x264.Rus.Eng.Ger.-CME-v0
Библиотека кодирования : VoLoNa by CMEGroup
Настройки программы : Encoded / optimized / using / HQ / profiles / at / CMEGroup
Язык : English
Default : Да
Forced : Нет
Аудио #1
Идентификатор : 2
Формат : AC-3
Формат/Информация : Audio Coding 3
Расширение режима : CM (complete main)
Параметр Endianness формата : Big
Режим смешивания : Header stripping
Идентификатор кодека : A_AC3
Продолжительность : 1 ч. 59 м.
Вид битрейта : Постоянный
Битрейт : 192 Кбит/сек
Каналы : 2 канала
Расположение каналов : Front: L R
Частота : 48,0 КГц
Битовая глубина : 16 бит
Метод сжатия : С потерями
Размер потока : 164 Мбайт (3%)
Заголовок : Russian - MVO
Язык : Russian
Default : Да
Forced : Нет
Аудио #2
Идентификатор : 3
Формат : AC-3
Формат/Информация : Audio Coding 3
Расширение режима : CM (complete main)
Параметр Endianness формата : Big
Режим смешивания : Header stripping
Идентификатор кодека : A_AC3
Продолжительность : 1 ч. 59 м.
Вид битрейта : Постоянный
Битрейт : 384 Кбит/сек
Каналы : 2 канала
Расположение каналов : Front: L R
Частота : 48,0 КГц
Битовая глубина : 16 бит
Метод сжатия : С потерями
Размер потока : 329 Мбайт (6%)
Заголовок : English
Язык : English
Default : Нет
Forced : Нет
Текст
Идентификатор : 4
Формат : UTF-8
Идентификатор кодека : S_TEXT/UTF8
Идентификатор кодека/Информация : UTF-8 Plain Text
Заголовок : English
Язык : English
Default : Нет
Forced : Нет

Скриншоты

Other forum [Profile] [PM]
Display posts from previous:    
Reply to topic

The time now is: Today 10:56

All times are GMT + 3 Hours



You cannot post new topics in this forum
You cannot reply to topics in this forum
You cannot edit your posts in this forum
You cannot delete your posts in this forum
You cannot vote in polls in this forum
You cannot attach files in this forum
You cannot download files in this forum