Today is a free download without charge Download

Whitesnake - Made in Japan [2013, Hard Rock, BDRip 720p]

Reply to topic
 
Author
Message

Omen ®

Longevity: 8 years 3 months

Posts: 181087

Торрент-статистика

Post 02-May-2013 21:52

[Quote]

Whitesnake - Made in Japan- Жанр: Hard Rock
Продолжительность: 01:13:51
Год выпуска: 2013-Описание: Концерт Whitesnake, записанный во время музыкального фестиваля в японском городе Сайтама 15 октября 2011 года в рамках "Forevermore World Tour".
Треклист:
01. Best Years
02. Give Me All Your Love Tonight
03. Love Ain't No Stranger
04. Is This Love
05. Steal Your Heart Away
06. Forevermore
07. Six Strings Showdown
08. Love Will Set You Free
09. Drum Solo
10. Fool For Your Loving
11. Here I Go Again
12. Still Of The Night
Доп. информация: Собственный рип http:///*spam*//forum/viewtopic.php?t=4427238, главы подписаны.
Спасибо chuhonka2010 за предоставленный Blu-ray!-Качество: BDRip 720p
Контейнер: MKV
Видео кодек: H.264
Аудио кодек: AC3
Видео: MPEG-4 AVC 5720 Kbps / 1280*720 / 29,970 fps / 16:9 /
Аудио: AC3 5.1 / 48 kHz / 640 kbps

x264 log

raw [info]: 1280x720p 1:1 @ 30000/1001 fps (cfr)
x264 [info]: using SAR=1/1
x264 [info]: using cpu capabilities: MMX2 SSE2Fast SSSE3 SSE4.2 AVX
x264 [info]: profile High, level 4.1
x264 [info]: frame I:1179 Avg QP:16.25 size: 94054
x264 [info]: frame P:41008 Avg QP:19.76 size: 38233
x264 [info]: frame B:90636 Avg QP:22.03 size: 16439
x264 [info]: consecutive B-frames: 6.7% 7.1% 19.5% 41.8% 14.1% 9.5% 1.3%
x264 [info]: mb I I16..4: 30.5% 49.7% 19.7%
x264 [info]: mb P I16..4: 13.0% 14.4% 3.0% P16..4: 30.1% 13.7% 7.5% 0.0% 0.0% skip:18.4%
x264 [info]: mb B I16..4: 2.1% 2.1% 0.5% B16..8: 32.3% 10.0% 3.0% direct: 8.2% skip:41.8% L0:41.1% L1:42.0% BI:16.9%
x264 [info]: 8x8 transform intra:46.9% inter:61.6%
x264 [info]: direct mvs spatial:96.0% temporal:4.0%
x264 [info]: coded y,uvDC,uvAC intra: 43.2% 62.1% 38.1% inter: 22.4% 31.9% 6.0%
x264 [info]: i16 v,h,dc,p: 72% 10% 6% 12%
x264 [info]: i8 v,h,dc,ddl,ddr,vr,hd,vl,hu: 11% 7% 12% 9% 14% 14% 12% 11% 11%
x264 [info]: i4 v,h,dc,ddl,ddr,vr,hd,vl,hu: 11% 6% 7% 10% 15% 15% 12% 11% 12%
x264 [info]: i8c dc,h,v,p: 47% 19% 20% 14%
x264 [info]: Weighted P-Frames: Y:14.0% UV:9.8%
x264 [info]: ref P L0: 52.0% 11.4% 15.8% 6.4% 4.4% 3.3% 2.7% 1.8% 1.6% 0.6% 0.1%
x264 [info]: ref B L0: 78.3% 10.1% 4.5% 2.5% 1.8% 1.4% 0.9% 0.4%
x264 [info]: ref B L1: 94.6% 5.4%
x264 [info]: kb/s:5719.89
x264 [total]: encoded 132823 frames, 3.21 fps, 5719.89 kb/s

Отчёт MediaInfo / BDInfo

Код:
General
Unique ID                                : 204338498705585030587422387760103254443 (0x99BA29D0F75BE0D4AD8922F3487969AB)
Complete name                            : C:\Whitesnake\Whitesnake.Made.in.Japan.2011.BDRip720p.AC3.mkv
Format                                   : Matroska
Format version                           : Version 4 / Version 2
File size                                : 3.28 GiB
Duration                                 : 1h 13mn
Overall bit rate                         : 6 362 Kbps
Encoded date                             : UTC 2013-05-02 16:24:58
Writing application                      : mkvmerge v6.2.0 ('Promised Land') built on Apr 28 2013 12:22:01
Writing library                          : libebml v1.3.0 + libmatroska v1.4.0
Video
ID                                       : 1
Format                                   : AVC
Format/Info                              : Advanced Video Codec
Format profile                           : [email protected]
Format settings, CABAC                   : Yes
Format settings, ReFrames                : 9 frames
Codec ID                                 : V_MPEG4/ISO/AVC
Duration                                 : 1h 13mn
Bit rate                                 : 5 720 Kbps
Width                                    : 1 280 pixels
Height                                   : 720 pixels
Display aspect ratio                     : 16:9
Frame rate mode                          : Constant
Frame rate                               : 29.970 fps
Color space                              : YUV
Chroma subsampling                       : 4:2:0
Bit depth                                : 8 bits
Scan type                                : Progressive
Bits/(Pixel*Frame)                       : 0.207
Stream size                              : 2.89 GiB (88%)
Writing library                          : x264 core 130 r2273 b3065e6
Encoding settings                        : cabac=1 / ref=9 / deblock=1:-3:-3 / analyse=0x3:0x113 / me=umh / subme=9 / psy=1 / psy_rd=1.00:0.05 / mixed_ref=1 / me_range=24 / chroma_me=1 / trellis=2 / 8x8dct=1 / cqm=0 / deadzone=21,11 / fast_pskip=0 / chroma_qp_offset=-3 / threads=12 / lookahead_threads=1 / sliced_threads=0 / nr=0 / decimate=1 / interlaced=0 / bluray_compat=0 / constrained_intra=0 / bframes=6 / b_pyramid=2 / b_adapt=2 / b_bias=0 / direct=3 / weightb=1 / open_gop=0 / weightp=2 / keyint=250 / keyint_min=25 / scenecut=40 / intra_refresh=0 / rc_lookahead=40 / rc=2pass / mbtree=1 / bitrate=5720 / ratetol=1.0 / qcomp=0.60 / qpmin=0 / qpmax=69 / qpstep=4 / cplxblur=20.0 / qblur=0.5 / vbv_maxrate=40000 / vbv_bufsize=30000 / nal_hrd=none / ip_ratio=1.40 / aq=1:1.00
Language                                 : English
Default                                  : Yes
Forced                                   : No
Color primaries                          : BT.709
Transfer characteristics                 : BT.709
Matrix coefficients                      : BT.709
Audio
ID                                       : 2
Format                                   : AC-3
Format/Info                              : Audio Coding 3
Mode extension                           : CM (complete main)
Format settings, Endianness              : Big
Codec ID                                 : A_AC3
Duration                                 : 1h 13mn
Bit rate mode                            : Constant
Bit rate                                 : 640 Kbps
Channel(s)                               : 6 channels
Channel positions                        : Front: L C R, Side: L R, LFE
Sampling rate                            : 48.0 KHz
Bit depth                                : 16 bits
Compression mode                         : Lossy
Stream size                              : 338 MiB (10%)
Title                                    : AC3 640 Kbps 5.1
Language                                 : English
Default                                  : Yes
Forced                                   : No
Menu
00:00:00.000                             : en:Best Years
00:06:31.324                             : en:Give Me All Your Love Tonight
00:11:14.574                             : en:Love Ain't No Stranger
00:15:40.440                             : en:Is This Love
00:20:06.872                             : en:Steal Your Heart Away
00:26:56.248                             : en:Forevermore
00:34:17.789                             : en:Six String Showdown
00:39:58.830                             : en:Love Will Set You Free
00:44:51.622                             : en:Drum Solo
00:52:10.227                             : en:Fool For Your Loving
00:57:12.529                             : en:Here I Go Again
01:02:58.041                             : en:Still Of The Night
01:12:09.292                             : en:Credits

Скриншоты

Other forum [Profile] [PM]
Display posts from previous:    
Reply to topic

The time now is: Today 07:13

All times are GMT + 3 Hours



You cannot post new topics in this forum
You cannot reply to topics in this forum
You cannot edit your posts in this forum
You cannot delete your posts in this forum
You cannot vote in polls in this forum
You cannot attach files in this forum
You cannot download files in this forum