Today is a free download without charge Download

Plastika - Проект "Кино в формате 4g" [2013 г., alternative, indie, soundtrack HDRip]

Reply to topic
 
Author
Message

Omen ®

Longevity: 8 years 3 months

Posts: 181087

Торрент-статистика

Post 02-May-2013 21:52

[Quote]

Plastika - Проект "Кино в формате 4g"
Жанр: indie, alternative, soundtrack
Продолжительность: 00:22:30+00:20:47
Год выпуска: 2013
Описание: Есть форматы 3D, 4D, 4DX. А мы предложили новый киноформат - 4G: единое пространство, немое кино, живая музыка, интернет. Премьера состоялась в Орле.
Кинопоказ состоялся в популярном в Орле кафе "3-й этаж". На чердаке. Небольшой зал помогает зрителю сконцентрироваться на происходящем на экране.
Показывали две картины, ставшие классикой сюрреализма, «Андалузский пёс» и «Антракт». Черно-белые картины были сняты легендарными художниками еще в 20-х годах прошлого столетия: создатель жанра музыкального фильма Рене Клер снял "Антракт" по заказу Шведского балета, а "Андалузский пёс" - это сотрудничество Луиса Буньюэля и Сальвадора Дали. Фильмы, правда, не немые, но для показа в Орле звук был выключен. Зачем?
Для создания настоящего объема и погружения в атмосферу кино мы предложили известной группе "Plastика" заново озвучить картины, да еще и "вживую". Опыт саундтреков у группы имеется: их песня "Воздух" звучит в сериале Валерии Гай Германики "Краткий курс счастливой жизни", а инструментальную композицию "Игрушка" можно услышать в картине "Этим вечером ангелы плакали".
Но для кинопоказа в формате 4G, по словам фронтмена коллектива Алексея Ракитина, было написано 70% нового инструментального материала. В момент кинопоказа группа и представила свой музыкальный взгляд на шедевры авангардного кино.
Подробнее о проекте: http://vk.com/cinema4g.
Данная раздача представлена в нескольких вариантах видео:
Movie+Live – совмещенная картинка живого выступления группы "Plastika" и фильмов;
Live – только живое выступление.
Другие раздачи данного проекта на трекере:
Оригинальные фильмы с саундтреком группы Plastika (DVDRip)
Саундтрек (MP3)

Movie+Live

Андалузский Пёс


Качество: HDRip
Контейнер: MP4
Видео кодек: H.264
Аудио кодек: MP3
Видео: 1278x402, 25.000 fps, 5000 Kbps
Аудио: MP3, 2Ch, 48 KHz, 320 Kbps

Скриншоты

MediaInfo

Код:
General
Complete name                    : Андалузский Пёс (movie+live) HDRip720p.mp4
Format                           : MPEG-4
Format profile                   : Base Media / Version 2
Codec ID                         : mp42
File size                        : 851 MiB
Duration                         : 22mn 30s
Overall bit rate                 : 5 285 Kbps
Encoded date                     : UTC 2013-04-17 13:42:10
Tagged date                      : UTC 2013-04-17 14:41:51
Writing application              : HandBrake 0.9.8 2012071700
Video
ID                               : 1
Format                           : AVC
Format/Info                      : Advanced Video Codec
Format profile                   : [email protected]
Format settings, CABAC           : Yes
Format settings, ReFrames        : 4 frames
Codec ID                         : avc1
Codec ID/Info                    : Advanced Video Coding
Duration                         : 22mn 30s
Bit rate mode                    : Variable
Bit rate                         : 5 000 Kbps
Width                            : 1 278 pixels
Height                           : 402 pixels
Display aspect ratio             : 3.179
Frame rate mode                  : Constant
Frame rate                       : 25.000 fps
Color space                      : YUV
Chroma subsampling               : 4:2:0
Bit depth                        : 8 bits
Scan type                        : Progressive
Bits/(Pixel*Frame)               : 0.389
Stream size                      : 799 MiB (94%)
Writing library                  : x264 core 120
Encoding settings                : cabac=1 / ref=1 / deblock=1:0:0 / analyse=0x1:0x111 / me=hex / subme=2 / psy=1 / psy_rd=1.00:0.00 / mixed_ref=0 / me_range=16 / chroma_me=1 / trellis=0 / 8x8dct=0 / cqm=0 / deadzone=21,11 / fast_pskip=1 / chroma_qp_offset=0 / threads=3 / sliced_threads=0 / nr=0 / decimate=1 / interlaced=0 / bluray_compat=0 / constrained_intra=0 / bframes=3 / b_pyramid=2 / b_adapt=1 / b_bias=0 / direct=1 / weightb=1 / open_gop=0 / weightp=1 / keyint=250 / keyint_min=25 / scenecut=40 / intra_refresh=0 / rc_lookahead=10 / rc=abr / mbtree=1 / bitrate=5000 / ratetol=1.0 / qcomp=0.60 / qpmin=3 / qpmax=69 / qpstep=4 / ip_ratio=1.40 / aq=1:1.00
Encoded date                     : UTC 2013-04-17 13:42:10
Tagged date                      : UTC 2013-04-17 14:41:51
Color primaries                  : BT.709-5, BT.1361, IEC 61966-2-4, SMPTE RP177
Transfer characteristics         : BT.709-5, BT.1361
Matrix coefficients              : BT.709-5, BT.1361, IEC 61966-2-4 709, SMPTE RP177
Audio
ID                               : 2
Format                           : MPEG Audio
Format version                   : Version 1
Format profile                   : Layer 3
Codec ID                         : 69
Duration                         : 22mn 29s
Bit rate mode                    : Variable
Bit rate                         : 320 Kbps
Channel(s)                       : 2 channels
Sampling rate                    : 48.0 KHz
Compression mode                 : Lossy
Stream size                      : 51.2 MiB (6%)
Writing library                  : LAME3.98ЄЄЄЄЄЄЄЄЄЄЄЄ
Encoded date                     : UTC 2013-04-17 13:42:10
Tagged date                      : UTC 2013-04-17 14:41:51

Антракт


Качество: HDRip
Контейнер: MP4
Видео кодек: H.264
Аудио кодек: MP3
Видео: 1280x446, 25.000 fps, 5000 Kbps
Аудио: MP3, 2Ch, 48 KHz, 320 Kbps

Скриншоты

MediaInfo

Код:
General
Complete name                    : Plastika - Антракт (movie+live) HDRip720p.mp4
Format                           : MPEG-4
Format profile                   : Base Media / Version 2
Codec ID                         : mp42
File size                        : 784 MiB
Duration                         : 20mn 47s
Overall bit rate                 : 5 270 Kbps
Encoded date                     : UTC 2013-04-17 14:47:12
Tagged date                      : UTC 2013-04-17 15:43:01
Writing application              : HandBrake 0.9.8 2012071700
Video
ID                               : 1
Format                           : AVC
Format/Info                      : Advanced Video Codec
Format profile                   : [email protected]
Format settings, CABAC           : Yes
Format settings, ReFrames        : 4 frames
Codec ID                         : avc1
Codec ID/Info                    : Advanced Video Coding
Duration                         : 20mn 47s
Bit rate mode                    : Variable
Bit rate                         : 5 000 Kbps
Width                            : 1 280 pixels
Height                           : 446 pixels
Display aspect ratio             : 2.870
Frame rate mode                  : Constant
Frame rate                       : 25.000 fps
Color space                      : YUV
Chroma subsampling               : 4:2:0
Bit depth                        : 8 bits
Scan type                        : Progressive
Bits/(Pixel*Frame)               : 0.350
Stream size                      : 736 MiB (94%)
Writing library                  : x264 core 120
Encoding settings                : cabac=1 / ref=1 / deblock=1:0:0 / analyse=0x1:0x111 / me=hex / subme=2 / psy=1 / psy_rd=1.00:0.00 / mixed_ref=0 / me_range=16 / chroma_me=1 / trellis=0 / 8x8dct=0 / cqm=0 / deadzone=21,11 / fast_pskip=1 / chroma_qp_offset=0 / threads=3 / sliced_threads=0 / nr=0 / decimate=1 / interlaced=0 / bluray_compat=0 / constrained_intra=0 / bframes=3 / b_pyramid=2 / b_adapt=1 / b_bias=0 / direct=1 / weightb=1 / open_gop=0 / weightp=1 / keyint=250 / keyint_min=25 / scenecut=40 / intra_refresh=0 / rc_lookahead=10 / rc=abr / mbtree=1 / bitrate=5000 / ratetol=1.0 / qcomp=0.60 / qpmin=3 / qpmax=69 / qpstep=4 / ip_ratio=1.40 / aq=1:1.00
Encoded date                     : UTC 2013-04-17 14:47:12
Tagged date                      : UTC 2013-04-17 15:43:01
Color primaries                  : BT.709-5, BT.1361, IEC 61966-2-4, SMPTE RP177
Transfer characteristics         : BT.709-5, BT.1361
Matrix coefficients              : BT.709-5, BT.1361, IEC 61966-2-4 709, SMPTE RP177
Audio
ID                               : 2
Format                           : MPEG Audio
Format version                   : Version 1
Format profile                   : Layer 3
Codec ID                         : 69
Duration                         : 20mn 47s
Bit rate mode                    : Variable
Bit rate                         : 315 Kbps
Maximum bit rate                 : 319 Kbps
Channel(s)                       : 2 channels
Sampling rate                    : 48.0 KHz
Compression mode                 : Lossy
Stream size                      : 46.8 MiB (6%)
Writing library                  : LAME3.98
Encoded date                     : UTC 2013-04-17 14:47:12
Tagged date                      : UTC 2013-04-17 15:43:00

Live

Андалузский Пёс


Качество: HDRip
Контейнер: MP4
Видео кодек: H.264
Аудио кодек: MP3
Видео: 1280x720, 25.000 fps, 5000 Kbps
Аудио: MP3, 2Ch, 48 KHz, 320 Kbps

Скриншоты

MediaInfo

Код:
General
Complete name                    : Plastika - Андалузский Пёс (live) HDRip720p.mp4
Format                           : MPEG-4
Format profile                   : Base Media / Version 2
Codec ID                         : mp42
File size                        : 859 MiB
Duration                         : 22mn 36s
Overall bit rate                 : 5 308 Kbps
Encoded date                     : UTC 2013-04-17 17:17:00
Tagged date                      : UTC 2013-04-17 18:26:54
Writing application              : HandBrake 0.9.8 2012071700
Video
ID                               : 1
Format                           : AVC
Format/Info                      : Advanced Video Codec
Format profile                   : [email protected]
Format settings, CABAC           : Yes
Format settings, ReFrames        : 4 frames
Codec ID                         : avc1
Codec ID/Info                    : Advanced Video Coding
Duration                         : 22mn 36s
Bit rate mode                    : Variable
Bit rate                         : 5 000 Kbps
Width                            : 1 280 pixels
Height                           : 720 pixels
Display aspect ratio             : 16:9
Frame rate mode                  : Constant
Frame rate                       : 25.000 fps
Color space                      : YUV
Chroma subsampling               : 4:2:0
Bit depth                        : 8 bits
Scan type                        : Progressive
Bits/(Pixel*Frame)               : 0.217
Stream size                      : 807 MiB (94%)
Writing library                  : x264 core 120
Encoding settings                : cabac=1 / ref=1 / deblock=1:0:0 / analyse=0x1:0x111 / me=hex / subme=2 / psy=1 / psy_rd=1.00:0.00 / mixed_ref=0 / me_range=16 / chroma_me=1 / trellis=0 / 8x8dct=0 / cqm=0 / deadzone=21,11 / fast_pskip=1 / chroma_qp_offset=0 / threads=3 / sliced_threads=0 / nr=0 / decimate=1 / interlaced=0 / bluray_compat=0 / constrained_intra=0 / bframes=3 / b_pyramid=2 / b_adapt=1 / b_bias=0 / direct=1 / weightb=1 / open_gop=0 / weightp=1 / keyint=250 / keyint_min=25 / scenecut=40 / intra_refresh=0 / rc_lookahead=10 / rc=abr / mbtree=1 / bitrate=5000 / ratetol=1.0 / qcomp=0.60 / qpmin=3 / qpmax=69 / qpstep=4 / ip_ratio=1.40 / aq=1:1.00
Encoded date                     : UTC 2013-04-17 17:17:00
Tagged date                      : UTC 2013-04-17 18:26:54
Color primaries                  : BT.709-5, BT.1361, IEC 61966-2-4, SMPTE RP177
Transfer characteristics         : BT.709-5, BT.1361
Matrix coefficients              : BT.709-5, BT.1361, IEC 61966-2-4 709, SMPTE RP177
Audio
ID                               : 2
Format                           : MPEG Audio
Format version                   : Version 1
Format profile                   : Layer 3
Codec ID                         : 69
Duration                         : 22mn 36s
Bit rate mode                    : Variable
Bit rate                         : 320 Kbps
Channel(s)                       : 2 channels
Sampling rate                    : 48.0 KHz
Compression mode                 : Lossy
Stream size                      : 51.3 MiB (6%)
Writing library                  : LAME3.98ЄЄЄЄЄЄЄЄЄЄЄЄ
Encoded date                     : UTC 2013-04-17 17:17:00
Tagged date                      : UTC 2013-04-17 18:26:53

Антракт


Качество: HDRip
Контейнер: MP4
Видео кодек: H.264
Аудио кодек: MP3
Видео: 1280x720, 25.000 fps, 5000 Kbps
Аудио: MP3, 2Ch, 48 KHz, 320 Kbps

Скриншоты

MediaInfo

Код:
General
Complete name                    : Z:\Shared Music\Plastika 4g\Plastika - Кино в формате 4g (2013) [VIDEO]\02. Live\Plastika - Антракт (live) HDRip720p.mp4
Format                           : MPEG-4
Format profile                   : Base Media / Version 2
Codec ID                         : mp42
File size                        : 790 MiB
Duration                         : 20mn 53s
Overall bit rate                 : 5 286 Kbps
Encoded date                     : UTC 2013-04-17 15:48:38
Tagged date                      : UTC 2013-04-17 17:10:13
Writing application              : HandBrake 0.9.8 2012071700
Video
ID                               : 1
Format                           : AVC
Format/Info                      : Advanced Video Codec
Format profile                   : [email protected]
Format settings, CABAC           : Yes
Format settings, ReFrames        : 4 frames
Codec ID                         : avc1
Codec ID/Info                    : Advanced Video Coding
Duration                         : 20mn 53s
Bit rate mode                    : Variable
Bit rate                         : 5 000 Kbps
Width                            : 1 280 pixels
Height                           : 720 pixels
Display aspect ratio             : 16:9
Frame rate mode                  : Constant
Frame rate                       : 25.000 fps
Color space                      : YUV
Chroma subsampling               : 4:2:0
Bit depth                        : 8 bits
Scan type                        : Progressive
Bits/(Pixel*Frame)               : 0.217
Stream size                      : 742 MiB (94%)
Writing library                  : x264 core 120
Encoding settings                : cabac=1 / ref=1 / deblock=1:0:0 / analyse=0x1:0x111 / me=hex / subme=2 / psy=1 / psy_rd=1.00:0.00 / mixed_ref=0 / me_range=16 / chroma_me=1 / trellis=0 / 8x8dct=0 / cqm=0 / deadzone=21,11 / fast_pskip=1 / chroma_qp_offset=0 / threads=3 / sliced_threads=0 / nr=0 / decimate=1 / interlaced=0 / bluray_compat=0 / constrained_intra=0 / bframes=3 / b_pyramid=2 / b_adapt=1 / b_bias=0 / direct=1 / weightb=1 / open_gop=0 / weightp=1 / keyint=250 / keyint_min=25 / scenecut=40 / intra_refresh=0 / rc_lookahead=10 / rc=abr / mbtree=1 / bitrate=5000 / ratetol=1.0 / qcomp=0.60 / qpmin=3 / qpmax=69 / qpstep=4 / ip_ratio=1.40 / aq=1:1.00
Encoded date                     : UTC 2013-04-17 15:48:38
Tagged date                      : UTC 2013-04-17 17:10:13
Color primaries                  : BT.709-5, BT.1361, IEC 61966-2-4, SMPTE RP177
Transfer characteristics         : BT.709-5, BT.1361
Matrix coefficients              : BT.709-5, BT.1361, IEC 61966-2-4 709, SMPTE RP177
Audio
ID                               : 2
Format                           : MPEG Audio
Format version                   : Version 1
Format profile                   : Layer 3
Codec ID                         : 69
Duration                         : 20mn 52s
Bit rate mode                    : Variable
Bit rate                         : 314 Kbps
Maximum bit rate                 : 319 Kbps
Channel(s)                       : 2 channels
Sampling rate                    : 48.0 KHz
Compression mode                 : Lossy
Stream size                      : 46.9 MiB (6%)
Writing library                  : LAME3.98
Encoded date                     : UTC 2013-04-17 15:48:38
Tagged date                      : UTC 2013-04-17 17:10:13
Other forum [Profile] [PM]
Display posts from previous:    
Reply to topic

The time now is: Today 23:18

All times are GMT + 3 Hours



You cannot post new topics in this forum
You cannot reply to topics in this forum
You cannot edit your posts in this forum
You cannot delete your posts in this forum
You cannot vote in polls in this forum
You cannot attach files in this forum
You cannot download files in this forum