Today is a free download without charge Download

Волшебная страна / Finding Neverland (Марк Форстер / Marc Forster) [2004, США, Великобритания, драма, семейный, биография, BDRip 720p] Dub + DVO (Tycoon) + MVO + Original (Eng) + Subs

Reply to topic
 
Author
Message

Omen ®

Longevity: 8 years 5 months

Posts: 181087

Торрент-статистика

Post 02-May-2013 17:48

[Quote]

-Волшебная страна / Finding Neverland- Страна: США, Великобритания
Жанр: драма, семейный, биография
Год выпуска: 2004
Продолжительность: 01:41:05
Перевод #1: Профессиональный (дублированный)
Перевод #2: Профессиональный (двухголосый закадровый)
Перевод #3: Профессиональный (многоголосый закадровый)
Cубтитры: русские, английские-Режиссер: Марк Форстер / Marc Forster
В ролях: Джонни Депп, Кейт Уинслет, Фредди Хаймор, Джули Кристи, Рада Митчелл, Дастин Хоффман, Иэн Харт, Келли Макдоналд, Макензи Крук, Айлин Эссел-Описание: Писатель-неудачник Дж. Меттью Барри не повинуется законам консервативного Лондона и становится другом одинокой вдовы, а также приемным отцом ее четырем маленьким сыновьям. Новая семья дарит вдохновение: писатель создает детского героя Питера Пена и чудесную сказку о детях, которые не хотят взрослеть…- -Сэмпл: http://sendfile.su/804715-Тип релиза: BDRip 720p
Контейнер: MKV
Видео: 1280x544 (2.35:1), 23.976 fps, AVC, ~4800 kbps avg
Аудио #1: Russian, 48 kHz, DTS, 3/2 (L,С,R,l,r) + LFE ch, ~768.00 kbps avg |Профессиональный дублированный|
Аудио #2: Russian, 48 kHz, DTS, 3/2 (L,C,R,l,r) + LFE ch, ~1509.00 kbps avg |Профессиональный двухголосый закадровый, Tycoon|
Аудио #3: Russian, 48 kHz, AC3, 3/2 (L,C,R,l,r) + LFE ch, ~448.00 kbps avg |Профессиональный многоголосый закадровый|
Аудио #4: English, 48 kHz, DTS, 3/2 (L,C,R,l,r) + LFE ch, ~1509.00 kbps avg |Оригинал|-

MediaInfo | x264

x264

x264 [info]: frame I:1194 Avg QP:14.69 size:110758
x264 [info]: frame P:29176 Avg QP:17.49 size: 46181
x264 [info]: frame B:115066 Avg QP:19.75 size: 18762
x264 [info]: consecutive B-frames: 1.9% 2.9% 6.5% 13.5% 11.5% 46.3% 5.7% 1.3% 2.7% 1.1% 2.1% 4.3%
Format : Matroska
Format version : Version 4 / Version 2
File size : 6.38 GiB
Duration : 1h 41mn
Overall bit rate : 9 037 Kbps
Movie name : Finding Neverland (2004) - Release for RuTracker
Encoded date : UTC 2013-05-02 11:22:10
Writing application : mkvmerge v6.1.0 ('Old Devil') built on Mar 2 2013 14:32:37
Writing library : libebml v1.3.0 + libmatroska v1.4.0
Video
ID : 1
Format : AVC
Format/Info : Advanced Video Codec
Format profile : [email protected]
Format settings, CABAC : Yes
Format settings, ReFrames : 12 frames
Codec ID : V_MPEG4/ISO/AVC
Duration : 1h 41mn
Bit rate : 4 800 Kbps
Width : 1 280 pixels
Height : 544 pixels
Display aspect ratio : 2.35:1
Frame rate mode : Constant
Frame rate : 23.976 fps
Color space : YUV
Chroma subsampling : 4:2:0
Bit depth : 8 bits
Scan type : Progressive
Bits/(Pixel*Frame) : 0.288
Stream size : 3.26 GiB (51%)
Title : Finding.Neverland.2004.720p.BluRay.Rus.Eng.ac3.dts.sub.RuTracker
Writing library : x264 core 130 r2273 b3065e6
Encoding settings : cabac=1 / ref=12 / deblock=1:-1:-1 / analyse=0x3:0x133 / me=umh / subme=10 / psy=1 / psy_rd=1.00:0.00 / mixed_ref=1 / me_range=48 / chroma_me=1 / trellis=2 / 8x8dct=1 / cqm=0 / deadzone=21,11 / fast_pskip=1 / chroma_qp_offset=-2 / threads=6 / lookahead_threads=1 / sliced_threads=0 / nr=0 / decimate=1 / interlaced=0 / bluray_compat=0 / constrained_intra=0 / bframes=11 / b_pyramid=2 / b_adapt=2 / b_bias=0 / direct=3 / weightb=1 / open_gop=0 / weightp=2 / keyint=240 / keyint_min=23 / scenecut=40 / intra_refresh=0 / rc_lookahead=60 / rc=2pass / mbtree=1 / bitrate=4800 / ratetol=1.0 / qcomp=0.60 / qpmin=0 / qpmax=69 / qpstep=4 / cplxblur=20.0 / qblur=0.5 / vbv_maxrate=50000 / vbv_bufsize=62500 / nal_hrd=none / ip_ratio=1.40 / aq=1:1.00
Language : English
Default : Yes
Forced : No
Audio #1
ID : 2
Format : DTS
Format/Info : Digital Theater Systems
Mode : 16
Format settings, Endianness : Big
Codec ID : A_DTS
Duration : 1h 41mn
Bit rate mode : Constant
Bit rate : 768 Kbps
Channel(s) : 6 channels
Channel positions : Front: L C R, Side: L R, LFE
Sampling rate : 48.0 KHz
Bit depth : 24 bits
Compression mode : Lossy
Stream size : 555 MiB (8%)
Title : Дубляж
Language : Russian
Default : Yes
Forced : No
Audio #2
ID : 3
Format : DTS
Format/Info : Digital Theater Systems
Mode : 16
Format settings, Endianness : Big
Codec ID : A_DTS
Duration : 1h 41mn
Bit rate mode : Constant
Bit rate : 1 509 Kbps
Channel(s) : 6 channels
Channel positions : Front: L C R, Side: L R, LFE
Sampling rate : 48.0 KHz
Bit depth : 24 bits
Compression mode : Lossy
Stream size : 1.07 GiB (17%)
Title : DVO [Tycoon]
Language : Russian
Default : No
Forced : No
Audio #3
ID : 4
Format : AC-3
Format/Info : Audio Coding 3
Mode extension : CM (complete main)
Format settings, Endianness : Big
Codec ID : A_AC3
Duration : 1h 41mn
Bit rate mode : Constant
Bit rate : 448 Kbps
Channel(s) : 6 channels
Channel positions : Front: L C R, Side: L R, LFE
Sampling rate : 48.0 KHz
Bit depth : 16 bits
Compression mode : Lossy
Stream size : 324 MiB (5%)
Title : MVO
Language : Russian
Default : No
Forced : No
Audio #4
ID : 5
Format : DTS
Format/Info : Digital Theater Systems
Mode : 16
Format settings, Endianness : Big
Codec ID : A_DTS
Duration : 1h 41mn
Bit rate mode : Constant
Bit rate : 1 509 Kbps
Channel(s) : 6 channels
Channel positions : Front: L C R, Side: L R, LFE
Sampling rate : 48.0 KHz
Bit depth : 24 bits
Compression mode : Lossy
Stream size : 1.07 GiB (17%)
Language : English
Default : No
Forced : No
Text #1
ID : 6
Format : UTF-8
Codec ID : S_TEXT/UTF8
Codec ID/Info : UTF-8 Plain Text
Language : Russian
Default : No
Forced : No
Text #2
ID : 7
Format : UTF-8
Codec ID : S_TEXT/UTF8
Codec ID/Info : UTF-8 Plain Text
Language : English
Default : No
Forced : No
Menu
00:00:00.000 : en:00:00:00.000
00:06:32.851 : en:00:06:32.851
00:14:30.453 : en:00:14:30.453
00:21:58.150 : en:00:21:58.150
00:27:30.440 : en:00:27:30.440
00:36:15.507 : en:00:36:15.507
00:44:49.937 : en:00:44:49.937
00:53:10.229 : en:00:53:10.229
01:05:44.190 : en:01:05:44.190
01:22:54.803 : en:01:22:54.803
01:30:06.234 : en:01:30:06.234
01:36:37.834 : en:01:36:37.834

Скриншоты


Other forum [Profile] [PM]
Display posts from previous:    
Reply to topic

The time now is: Today 10:34

All times are GMT + 3 Hours



You cannot post new topics in this forum
You cannot reply to topics in this forum
You cannot edit your posts in this forum
You cannot delete your posts in this forum
You cannot vote in polls in this forum
You cannot attach files in this forum
You cannot download files in this forum