Today is a free download without charge Download

Helloween - Nabataea [2012, Power Metal, HDTV 1080i]

Reply to topic
 
Author
Message

Omen ®

Longevity: 8 years 3 months

Posts: 181087

Торрент-статистика

Post 02-May-2013 13:46

[Quote]

Helloween - Nabataea
Жанр: Power Metal
Продолжительность: 00:05:51
Год выпуска: 2012
Доп. информация: Все благодарности пользователю michael-lady за любезно предоставленный материал.
Качество: HDTV 1080i
Контейнер: M2TS
Видео кодек: H.264
Аудио кодек: AC3
Видео: AVC, 1920х1080, 16:9, 12.7 Мбит/сек, 29,970 кадров/сек
Аудио: Dolby AC3 48000Hz stereo 256kbps

Отчёт MediaInfo / BDInfo

GeneralID : 0 (0x0)Complete name : D:\Видео\Helloween - Nabataea.m2tsFormat : MPEG-TSFile size : 569 MiBDuration : 5mn 51sOverall bit rate mode : VariableOverall bit rate : 13.6 MbpsMaximum Overall bit rate : 40.0 Mbps
VideoID : 4113 (0x1011)Menu ID : 1 (0x1)Format : AVCFormat/Info : Advanced Video CodecFormat profile : [email protected] settings, CABAC : YesFormat settings, ReFrames : 2 framesFormat settings, GOP : M=3, N=13Codec ID : 27Duration : 5mn 51sBit rate : 12.7 MbpsWidth : 1 920 pixelsHeight : 1 080 pixelsDisplay aspect ratio : 16:9Frame rate mode : VariableColor space : YUVChroma subsampling : 4:2:0Bit depth : 8 bitsScan type : MBAFFStream size : 530 MiB (93%)
AudioID : 4352 (0x1100)Menu ID : 1 (0x1)Format : AC-3Format/Info : Audio Coding 3Mode extension : CM (complete main)Format settings, Endianness : BigCodec ID : 129Duration : 5mn 51sBit rate mode : ConstantBit rate : 256 KbpsChannel(s) : 2 channelsChannel positions : Front: L RSampling rate : 48.0 KHzBit depth : 16 bitsCompression mode : LossyDelay relative to video : 15msStream size : 10.7 MiB (2%)

Скриншоты

Other forum [Profile] [PM]
Display posts from previous:    
Reply to topic

The time now is: Today 09:03

All times are GMT + 3 Hours



You cannot post new topics in this forum
You cannot reply to topics in this forum
You cannot edit your posts in this forum
You cannot delete your posts in this forum
You cannot vote in polls in this forum
You cannot attach files in this forum
You cannot download files in this forum