Today is a free download without charge Download

Белорусский вокзал (Андрей Смирнов) [Драма, Военный, 1971] DVDRip (H.264) [Реставрация Крупный план]

Reply to topic
 
Author
Message

Omen ®

Longevity: 6 years 5 months

Posts: 181112

Торрент-статистика

Post 02-May-2013 09:27

[Quote]

Белорусский вокзал -Полная реставрация изображения и звука
Объединение "Крупный план"
- Русское название: Белорусский вокзал
Год выпуска: 1971
Жанр: Драма, Военный
Описание фильма:
Герои фильма расстались на Белорусском вокзале летом 1945-го.
И теперь, спустя четверть века, они встречаются на похоронах боевого товарища: директор завода и бывший командир роты Харламов, фронтовой разведчик, а ныне слесарь Приходько, бухгалтер Дубинский - бывший радист и журналист Кирюшин - сапёр... В их душах с новой силой оживает пережитое. Время не властно над их памятью: ветераны сохранили верность фронтовой дружбе, способность жертвовать собой, неистребимую любовь к жизни.
Режиссер: Андрей Смирнов
Актеры: Евгений Леонов, Анатолий Папанов, Всеволод Сафонов, Алексей Глазырин, Нина Ургант, Раиса Куркина, Любовь Соколова, Маргарита Терехова, Никифор Колофидин, Юрий Орлов, Николай Волков (младший), Александр Январёв
Сценарий: Вадим Трунин
Директор фильма: А. Стефанский
Оператор: Павел Лебешев
Композитор: Булат Окуджава, Альфред Шнитке
Художник: Владимир Коровин
Монтаж: Валерия Белова
Автор рипа: denver7979 ®

Премьера (мир): 30 апреля 1971
Релиз на DVD: 2 октября 2008
Продолжительность: 01:35:21
Качество видео: DVDRip [H.264]
Видео: AVC, 1024x480 (2.2:1), 25.000 fps, 1 991 Kbps (0.162 bit/pixel)
Аудио #1: AC-3, 48.0 KHz, 6 ch, 448 Kbps, CBR (Русский)
Аудио #2: AC-3, 48.0 KHz, 1 ch, 448 Kbps, CBR (Русский)

МедиаИнфо:

Код:
Видео
Идентификатор                            : 1
Формат                                   : AVC
Формат/Информация                        : Advanced Video Codec
Профиль формата                          : [url=mailto:[email protected]][email protected][/url]
Параметр CABAC формата                   : Да
Параметр ReFrames формата                : 6 кадров
Идентификатор кодека                     : V_MPEG4/ISO/AVC
Продолжительность                        : 1 ч. 35 м.
Битрейт                                  : 1991 Кбит/сек
Ширина                                   : 1024 пикселя
Высота                                   : 480 пикселей
Соотношение сторон                       : 2,133
Режим частоты кадров                     : Постоянный
Частота кадров                           : 25,000 кадров/сек
Цветовое пространство                    : YUV
Субдискретизация насыщенности            : 4:2:0
Битовая глубина                          : 8 бит
Тип развёртки                            : Прогрессивная
Бит/(Пиксели*Кадры)                      : 0.162
Размер потока                            : 1,29 Гбайт (67%)
Библиотека кодирования                   : x264 core 125 r2208 d9d2288
Настройки программы                      : cabac=1 / ref=6 / deblock=1:1:1 / analyse=0x1:0x131 / me=umh / subme=7 / psy=1 / psy_rd=0.40:0.00 / mixed_ref=1 / me_range=16 / chroma_me=1 / trellis=2 / 8x8dct=0 / cqm=0 / deadzone=21,11 / fast_pskip=0 / chroma_qp_offset=-2 / threads=3 / lookahead_threads=1 / sliced_threads=0 / nr=0 / decimate=1 / interlaced=0 / bluray_compat=0 / constrained_intra=0 / bframes=5 / b_pyramid=2 / b_adapt=2 / b_bias=0 / direct=3 / weightb=1 / open_gop=0 / weightp=2 / keyint=250 / keyint_min=25 / scenecut=40 / intra_refresh=0 / rc_lookahead=50 / rc=2pass / mbtree=1 / bitrate=1991 / ratetol=1.0 / qcomp=0.60 / qpmin=0 / qpmax=69 / qpstep=4 / cplxblur=20.0 / qblur=0.5 / ip_ratio=1.40 / aq=1:0.60
Язык                                     : Russian
Default                                  : Да
Forced                                   : Нет
Аудио #1
Идентификатор                            : 2
Формат                                   : AC-3
Формат/Информация                        : Audio Coding 3
Расширение режима                        : CM (complete main)
Параметр Endianness формата              : Big
Идентификатор кодека                     : A_AC3
Продолжительность                        : 1 ч. 35 м.
Вид битрейта                             : Постоянный
Битрейт                                  : 448 Кбит/сек
Каналы                                   : 6 каналов
Расположение каналов                     : Front: L C R, Side: L R, LFE
Частота                                  : 48,0 КГц
Битовая глубина                          : 16 бит
Метод сжатия                             : С потерями
Задержка видео                           : 880 мс.
Размер потока                            : 306 Мбайт (16%)
Язык                                     : Russian
Default                                  : Да
Forced                                   : Нет
Аудио #2
Идентификатор                            : 3
Формат                                   : AC-3
Формат/Информация                        : Audio Coding 3
Расширение режима                        : CM (complete main)
Параметр Endianness формата              : Big
Идентификатор кодека                     : A_AC3
Продолжительность                        : 1 ч. 35 м.
Вид битрейта                             : Постоянный
Битрейт                                  : 448 Кбит/сек
Каналы                                   : 1 канал
Расположение каналов                     : Front: C
Частота                                  : 48,0 КГц
Битовая глубина                          : 16 бит
Метод сжатия                             : С потерями
Задержка видео                           : 882 мс.
Язык                                     : Russian
Default                                  : Нет
Forced                                   : Нет
Скриншоты:
         
         
Other forum [Profile] [PM]

uschakov.yura

Gender:

Longevity: 6 years 11 months

Posts: 404

Location: Рыбинск Ярославской области

Торрент-статистика

Post 02-May-2013 10:59 (after 1 hour 31 minute)

[Quote]

Фильм безусловно не новый, но ничего лучшего на тему предстоящего праздника 9 мая я представить себе не могу. Большое спасибо.

_________________
uschakov.yura
Other forum [Profile] [PM]
Display posts from previous:    
Reply to topic

The time now is: Today 14:56

All times are GMT + 3 Hours



You cannot post new topics in this forum
You cannot reply to topics in this forum
You cannot edit your posts in this forum
You cannot delete your posts in this forum
You cannot vote in polls in this forum
You cannot attach files in this forum
You cannot download files in this forum