Сегодня идет свободное скачивание без начисления Download

Такая она, игра (1976) TVRip

Ответить на тему
 
Автор
Сообщение

UndegraundMen ®

Стаж: 5 лет 9 месяцев

Сообщений: 25860

Торрент-статистика

Пост 02-Май-2013 00:01

[Цитировать]

Такая она, игра (1976) TVRip- Русское название: Такая она, игра
Год выпуска: 1976
Жанр: Драма, Спортивный
Выпущено: к/ст им. Довженко, СССР
Описание фильма:
Конфликт между тренером футбольной команды, и лучшими игроками - Бушуевым и Миленковым - привел к тому, что футболисты ушли из команды. Миленков вернулся в НИИ, а Бушуев уехал в провинциальный городок, стал тренером и, положив в основу тренировок научный подход к игре, в короткий срок добился больших успехов...
Режиссер: Владимир Попков, Николай Малецкий
Актеры: Степан Олексенко, Вячеслав Жолобов, Георгий Жженов, Николай Гринько, Александр Пашутин, Юрий Критенко, Борис Щербаков, Александр Мартынов, Александр Денисов, Антонина Лефтий, Регина Разума, Валентина Гришокина, Михаил Езепов, Борис Кудрявцев, Сергей Подгорный, Владимир Ермаков, Владимир Абазопуло, Роман Ткачук, Николай Рушковский
Продолжительность: 01:32:14

Видеокодек: Xvid
Битрейт видео: ~940 kb/s
Размер кадра: 640 x 272
Качество видео: TVRip
Аудиокодек: MP3 2.0
Битрейт аудио: 128 kb/s

MediaInfo

Общее
Полное имя : Такая она игра.1976.SATRip.avi
Формат : AVI
Формат/Информация : Audio Video Interleave
Размер файла : 701 Мбайт
Продолжительность : 1 ч. 32 м.
Общий поток : 1063 Кбит/сек
Программа кодирования : VirtualDubMod 1.5.10.2 (build 2540/release)
Библиотека кодирования : VirtualDubMod build 2540/release
Видео
Идентификатор : 0
Формат : MPEG-4 Visual
Профиль формата : Advanced [email protected]
Параметр BVOP формата : 1
Параметр QPel формата : Нет
Параметр GMC формата : Без точки перехода
Параметр матрицы формата : Default (H.263)
Идентификатор кодека : XVID
Идентификатор кодека/Подсказка : XviD
Продолжительность : 1 ч. 32 м.
Битрейт : 925 Кбит/сек
Ширина : 640 пикселей
Высота : 272 пикселя
Соотношение сторон : 2,35:1
Частота кадров : 25,000 кадров/сек
Цветовое пространство : YUV
Субдискретизация насыщенности : 4:2:0
Битовая глубина : 8 бит
Тип развёртки : Прогрессивная
Метод сжатия : С потерями
Бит/(Пиксели*Кадры) : 0.213
Размер потока : 610 Мбайт (87%)
Библиотека кодирования : XviD 1.2.1 (UTC 2008-12-04)
Аудио
Идентификатор : 1
Формат : MPEG Audio
Версия формата : Version 1
Профиль формата : Layer 3
Идентификатор кодека : 55
Идентификатор кодека/Подсказка : MP3
Продолжительность : 1 ч. 32 м.
Вид битрейта : Постоянный
Битрейт : 128 Кбит/сек
Каналы : 2 канала
Частота : 48,0 КГц
Метод сжатия : С потерями
Размер потока : 84,4 Мбайт (12%)
Выравнивание : Соединение по промежуткам
Продолжительность промежутка : 40 мс. (1,00 видеокадр)
Время предзагрузки промежутка : 504 мс.
Библиотека кодирования : LAME3.98r
Настройки программы : -m s -V 4 -q 2 -lowpass 17 -b 128
Скриншоты:          Время раздачи: по возможности
Вне форума [Профиль] [ЛС]
Показать сообщения:    
Ответить на тему

Текущее время: Сегодня 23:06

Часовой пояс: GMT + 3



Вы не можете начинать темы
Вы не можете отвечать на сообщения
Вы не можете редактировать свои сообщения
Вы не можете удалять свои сообщения
Вы не можете голосовать в опросах
Вы не можете прикреплять файлы к сообщениям
Вы не можете скачивать файлы