Today is a free download without charge Download

Грязные игры / The Company You Keep ( Роберт Редфорд ) (2012, Триллер ) BDRip [1080p] [EN]

Reply to topic
 
Author
Message

Витек1 ®

Gender:

Longevity: 8 years 3 months

Posts: 451

Location: Житомир

Торрент-статистика

Post 01-May-2013 19:10

[Quote]

Грязные игры / The Company You Keep - Русское название: Грязные игры
Оригинальное название: The Company You Keep
Год выпуска: 2012
Жанр: Триллер
Описание фильма:
Случайная дорожная катастрофа выводит на след громкого преступления, совершенного 30 лет назад. Молодой журналист подступает к разгадке тайны темного маргинального прошлого известного адвоката.
Режиссер: Роберт Редфорд
Актеры: Роберт Редфорд, Сьюзен Сарандон, Ник Нолти, Шайа ЛаБаф, Джули Кристи, Сэм Эллиотт, Джеки Иванко, Брендан Глисон, Терренс Ховард, Ричард Дженкинс, Анна Кендрик, Брит Марлинг
Продолжительность: 02:04:51
Перевод: Отсутствует
Язык: Английский

Видеокодек: MPEG-4 AVC/H.264
Битрейт видео: ~6 557 Kbps
Размер кадра: 1920x800
Качество видео: BDRip
Аудиокодек: DTS : 6 channels
Битрейт аудио: 1 510 Kbps
Сэмпл: Ссылка

Screenlist

 

MediaInfo

The.Company.You.Keep.2012.1080p.BluRay.x264.DTS-PTpOWeR\The.Company.You.Keep.2012.1080p.BluRay.x264.DTS-PTpOWeR.mkv
Format : Matroska
Format version : Version 2
File size : 7.18 GiB
Duration : 2h 4mn
Overall bit rate : 8 230 Kbps
Writing application : HandBrake 0.9.6
Writing library : libmkv 0.6.5
Video
ID : 1
Format : AVC
Format/Info : Advanced Video Codec
Format profile : [url=mailto:[email protected]][email protected][/url]
Format settings, CABAC : Yes
Format settings, ReFrames : 4 frames
Codec ID : V_MPEG4/ISO/AVC
Duration : 2h 4mn
Bit rate : 6 557 Kbps
Nominal bit rate : 7 000 Kbps
Width : 1 920 pixels
Height : 800 pixels
Display aspect ratio : 2.40:1
Frame rate mode : Variable
Frame rate : 24.000 fps
Color space : YUV
Chroma subsampling : 4:2:0
Bit depth : 8 bits
Scan type : Progressive
Bits/(Pixel*Frame) : 0.178
Stream size : 5.72 GiB (80%)
Writing library : x264 core 120
Encoding settings : cabac=1 / ref=1 / deblock=1:0:0 / analyse=0x1:0x111 / me=hex / subme=2 / psy=1 / psy_rd=1.00:0.00 / mixed_ref=0 / me_range=16 / chroma_me=1 / trellis=0 / 8x8dct=0 / cqm=0 / deadzone=21,11 / fast_pskip=1 / chroma_qp_offset=0 / threads=12 / sliced_threads=0 / nr=0 / decimate=1 / interlaced=0 / bluray_compat=0 / constrained_intra=0 / bframes=3 / b_pyramid=2 / b_adapt=1 / b_bias=0 / direct=1 / weightb=1 / open_gop=0 / weightp=1 / keyint=240 / keyint_min=24 / scenecut=40 / intra_refresh=0 / rc_lookahead=10 / rc=abr / mbtree=1 / bitrate=7000 / ratetol=1.0 / qcomp=0.60 / qpmin=3 / qpmax=69 / qpstep=4 / ip_ratio=1.40 / aq=1:1.00
Language : English
Default : Yes
Forced : No
Color primaries : BT.709-5, BT.1361, IEC 61966-2-4, SMPTE RP177
Transfer characteristics : BT.709-5, BT.1361
Matrix coefficients : BT.709-5, BT.1361, IEC 61966-2-4 709, SMPTE RP177
Audio
ID : 2
Format : DTS
Format/Info : Digital Theater Systems
Codec ID : A_DTS
Duration : 2h 4mn
Bit rate mode : Constant
Bit rate : 1 510 Kbps
Channel(s) : 6 channels
Channel positions : Front: L C R, Side: L R, LFE
Sampling rate : 48.0 KHz
Bit depth : 16 bits
Compression mode : Lossy
Stream size : 1.32 GiB (18%)
Language : English
Default : Yes
Forced : No
Menu
00:00:00.000 : Chapter 1
00:09:49.125 : Chapter 2
00:18:38.250 : Chapter 3
00:28:55.916 : Chapter 4
00:34:04.000 : Chapter 5
00:47:14.166 : Chapter 6
00:55:48.375 : Chapter 7
01:04:25.708 : Chapter 8
01:12:10.583 : Chapter 9
01:24:34.000 : Chapter 10
01:32:49.541 : Chapter 11
01:44:39.083 : Chapter 12
02:02:08.208 : Chapter 13
Скриншоты:
       

_________________
Скачал сам, дай скачать другому!!!Не забудь сказать -
Other forum [Profile] [PM]

Dracula

Longevity: 7 years 5 months

Posts: 11218

Торрент-статистика

Post 02-May-2013 10:20 (after 15 hours)

Топик был перенесен из форума Зарубежное кино (DVD) в форум Зарубежное кино (HD Video)


RUGUI
 
Display posts from previous:    
Reply to topic

The time now is: Today 23:43

All times are GMT + 3 Hours



You cannot post new topics in this forum
You cannot reply to topics in this forum
You cannot edit your posts in this forum
You cannot delete your posts in this forum
You cannot vote in polls in this forum
You cannot attach files in this forum
You cannot download files in this forum