Today is a free download without charge Download

Воды слонам! / Water for Elephants (Френсис Лоуренс) [2011, Драма BDRip 720p]

Reply to topic
 
Author
Message

sassad ®

Gender:

Longevity: 8 years 7 months

Posts: 1214

Location: Галич

Торрент-статистика

Post 23-Jul-2011 19:41

[Quote]

Воды слонам! / Water for Elephants- Год выпуска: 2011
Страна: США.
Жанр: Драма
Продолжительность: 116 мин
Перевод: Дублированный (Лицензия)
Режиссер: Френсис Лоуренс.
Продюссер: Джил Неттер, Эрвин Стофф, Эндрю Р. Теннербаум.
Сценарий: Ричард ЛаГравенес, Сара Груэн.-Бюджет: $38 000 000
Премьера в мире: 15 апреля 2011

Роберт Паттинсон, Риз Уизерспун, Кристоф Вальц, Пол Шнайдер, Джим Нортон, Хэл Холбрук, Марк Повинелли, Ричард Брэйк, Стивен Тейлор, Кен Фори. Времена Великой депрессии. Студент-ветеринар Якоб бросает учебу после того, как его родители погибают, и присоединяется к «Benzini Brothers», самому грандиозному цирковому шоу на Земле. Там он начинает работать ветеринаром, а заодно и влюбляется в прекрасную наездницу Марлену, которая, правда, замужем за Августом, харизматичным, но жестоким дрессировщиком.Доп. информация: премьера (РФ): 21 апреля 2011, «Фокс»- Качество:: BDRip 720p
Формат: MKV
Видео кодек: H.264
Аудио кодек: AC3
Видео: 5033 kbps, 1280x544, 25.000 fps.
Аудио: AC3, 384 kbps (6ch) Субтитры:Русские, Украинские, Английские.

Медиаинфо

General
Complete name : D:Воды слонам!.mkv
Format : Matroska
File size : 4.68 GiB
Duration : 1h 55mn
Overall bit rate : 5 801 Kbps
Encoded date : UTC 2011-07-23 02:54:28
Writing application : mkvmerge v4.7.0 ('Just Like You Imagined') сборка от Apr 21 2011 01:13:14
Writing library : libebml v1.2.0 + libmatroska v1.1.0
Video #1
ID : 1
Format : AVC
Format/Info : Advanced Video Codec
Format profile : [email protected]
Format settings, CABAC : Yes
Format settings, ReFrames : 5 frames
Muxing mode : Header stripping
Codec ID : V_MPEG4/ISO/AVC
Duration : 1h 55mn
Bit rate : 5 033 Kbps
Width : 1 280 pixels
Height : 544 pixels
Display aspect ratio : 2.35:1
Frame rate : 25.000 fps
Color space : YUV
Chroma subsampling : 4:2:0
Bit depth : 8 bits
Scan type : Progressive
Bits/(Pixel*Frame) : 0.289
Stream size : 3.97 GiB (85%)
Title : Воды слонам! / Water for Elephants (2011) BDRip 720p от Mr.B1g $hot
Writing library : x264 core 114 r1924 08d04a4
Encoding settings : cabac=1 / ref=5 / deblock=1:-1:-1 / analyse=0x3:0x133 / me=umh / subme=8 / psy=1 / psy_rd=1.00:0.00 / mixed_ref=1 / me_range=16 / chroma_me=1 / trellis=1 / 8x8dct=1 / cqm=0 / deadzone=21,11 / fast_pskip=1 / chroma_qp_offset=-2 / threads=8 / sliced_threads=0 / nr=0 / decimate=1 / interlaced=0 / constrained_intra=0 / bframes=3 / b_pyramid=2 / b_adapt=2 / b_bias=0 / direct=3 / weightb=1 / open_gop=0 / weightp=2 / keyint=250 / keyint_min=25 / scenecut=40 / intra_refresh=0 / rc_lookahead=50 / rc=2pass / mbtree=1 / bitrate=5033 / ratetol=1.0 / qcomp=0.60 / qpmin=0 / qpmax=69 / qpstep=4 / cplxblur=20.0 / qblur=0.5 / ip_ratio=1.40 / aq=1:1.00
Language : English
Audio #2
ID : 2
Format : AC-3
Format/Info : Audio Coding 3
Mode extension : CM (complete main)
Muxing mode : Header stripping
Codec ID : A_AC3
Duration : 1h 55mn
Bit rate mode : Constant
Bit rate : 384 Kbps
Channel(s) : 6 channels
Channel positions : Front: L C R, Side: L R, LFE
Sampling rate : 48.0 KHz
Bit depth : 16 bits
Compression mode : Lossy
Stream size : 317 MiB (7%)
Title : Дубляж R5 [Лицензия]
Language : Russian
Audio #3
ID : 3
Format : AC-3
Format/Info : Audio Coding 3
Mode extension : CM (complete main)
Muxing mode : Header stripping
Codec ID : A_AC3
Duration : 1h 55mn
Bit rate mode : Constant
Bit rate : 384 Kbps
Channel(s) : 6 channels
Channel positions : Front: L C R, Side: L R, LFE
Sampling rate : 48.0 KHz
Bit depth : 16 bits
Compression mode : Lossy
Stream size : 317 MiB (7%)
Title : Original
Language : English
Text #4
ID : 4
Format : UTF-8
Codec ID : S_TEXT/UTF8
Codec ID/Info : UTF-8 Plain Text
Title : Full
Language : Russian
Text #5
ID : 5
Format : UTF-8
Codec ID : S_TEXT/UTF8
Codec ID/Info : UTF-8 Plain Text
Title : Full
Language : Ukrainian
Text #6
ID : 6
Format : UTF-8
Codec ID : S_TEXT/UTF8
Codec ID/Info : UTF-8 Plain Text
Title : Full
Language : English
--            --

_________________


Last edited by sassad on 2011-07-23 20:40; edited 3 times in total
Other forum [Profile] [PM]
Display posts from previous:    
Reply to topic

The time now is: Today 11:31

All times are GMT + 3 Hours



You cannot post new topics in this forum
You cannot reply to topics in this forum
You cannot edit your posts in this forum
You cannot delete your posts in this forum
You cannot vote in polls in this forum
You cannot attach files in this forum
You cannot download files in this forum