Today is a free download without charge Download

Пожнешь бурю / Inherit the Wind (Стэнли Крамер / Stanley Kramer) [1960, США, драма, история, HDTVRip 720p] MVO + Sub Eng + Original Eng

Reply to topic
 
Author
Message

Omen ®

Longevity: 8 years 5 months

Posts: 181087

Торрент-статистика

Post 01-May-2013 18:07

[Quote]

Пожнешь бурю / Inherit the Wind
Страна: США
Жанр: драма, история
Год выпуска: 1960
Продолжительность: 02:02:39
Перевод: Профессиональный (многоголосый закадровый) СПб, 5-й канал
Cубтитры: английские
Оригинальная аудиодорожка: английский-Режиссер: Стэнли Крамер / Stanley Kramer
В ролях: Спенсер Трэйси, Фредрик Марч, Джин Келли, Дик Йорк, Донна Андерсон, Гарри Морган, Клод Экинс, Пол Хартман, Филип Кулидж, Джимми Бойд
Описание: По мотивам одноимённой пьесы Джерома Лоуренса и Роберта Эдвина Ли.
Судебная драма про школьного учителя Джона Скоупса, который за преподавание теории эволюции Дарвина летом 1925 года в штате Теннесси был арестован. Обвинителем Скоупса был столп фундаментализма Уильям Дженнингс Брайан, а защитником - проповедник либерального образа мышления Клэренс Дэрроу. Имена исторических лиц в картине изменены, но сами они очень и очень узнаваемы. Фильм остро обнажает фарсовость "Обезьяньего процесса".
IMDb || КиноПоиск-Тип релиза: HDTVRip 720p [CtrlHD]
Контейнер: MKV
Видео: H.264/AVC, 1196x720 at 25.000 fps, ~6200 kbps
Аудио#1: Russian: 48 kHz, AC3, 2/0 (L,R) ch, 192 kbps |Многоголосый закадровый, СПб 5-й канал|
Аудио#2: English: 48 kHz, AC3, 2/0 (L,R) ch, 384 kbps
Формат субтитров: softsub (SRT)
Сэмпл

MediaInfo

Format : Matroska
Format version : Version 2
File size : 5.81 GiB
Duration : 2h 2mn
Overall bit rate : 6 778 Kbps
Encoded date : UTC 2013-05-01 13:47:07
Writing application : mkvmerge v5.0.1 ('Es ist Sommer') built on Nov 6 2011 16:23:40
Writing library : libebml v1.2.2 + libmatroska v1.3.0
Video
ID : 1
Format : AVC
Format/Info : Advanced Video Codec
Format profile : [email protected]
Format settings, CABAC : Yes
Format settings, ReFrames : 9 frames
Codec ID : V_MPEG4/ISO/AVC
Duration : 2h 2mn
Bit rate : 6 200 Kbps
Width : 1 196 pixels
Height : 720 pixels
Display aspect ratio : 1.661
Frame rate : 25.000 fps
Color space : YUV
Chroma subsampling : 4:2:0
Bit depth : 8 bits
Scan type : Progressive
Bits/(Pixel*Frame) : 0.288
Stream size : 5.20 GiB (90%)
Writing library : x264 core 130 r2273 b3065e6
Encoding settings : cabac=1 / ref=9 / deblock=1:-3:-3 / analyse=0x3:0x113 / me=umh / subme=10 / psy=1 / psy_rd=1.05:0.00 / mixed_ref=1 / me_range=24 / chroma_me=1 / trellis=2 / 8x8dct=1 / cqm=0 / deadzone=21,11 / fast_pskip=1 / chroma_qp_offset=-2 / threads=12 / lookahead_threads=2 / sliced_threads=0 / nr=0 / decimate=1 / interlaced=0 / bluray_compat=0 / constrained_intra=0 / bframes=8 / b_pyramid=2 / b_adapt=2 / b_bias=0 / direct=3 / weightb=1 / open_gop=0 / weightp=2 / keyint=250 / keyint_min=25 / scenecut=40 / intra_refresh=0 / rc=2pass / mbtree=0 / bitrate=6200 / ratetol=1.0 / qcomp=0.75 / qpmin=0 / qpmax=69 / qpstep=4 / cplxblur=20.0 / qblur=0.5 / ip_ratio=1.20 / pb_ratio=1.10 / aq=1:0.80
Language : English
Default : Yes
Forced : No
Audio #1
ID : 2
Format : AC-3
Format/Info : Audio Coding 3
Mode extension : CM (complete main)
Codec ID : A_AC3
Duration : 2h 2mn
Bit rate mode : Constant
Bit rate : 192 Kbps
Channel(s) : 2 channels
Channel positions : Front: L R
Sampling rate : 48.0 KHz
Bit depth : 16 bits
Compression mode : Lossy
Stream size : 168 MiB (3%)
Language : Russian
Default : Yes
Forced : No
Audio #2
ID : 3
Format : AC-3
Format/Info : Audio Coding 3
Format profile : Dolby Digital
Mode extension : CM (complete main)
Codec ID : A_AC3
Duration : 2h 2mn
Bit rate mode : Constant
Bit rate : 384 Kbps
Channel(s) : 2 channels
Channel positions : Front: L R
Sampling rate : 48.0 KHz
Bit depth : 16 bits
Compression mode : Lossy
Stream size : 337 MiB (6%)
Language : English
Default : No
Forced : No
Text
ID : 4
Format : UTF-8
Codec ID : S_TEXT/UTF8
Codec ID/Info : UTF-8 Plain Text
Language : English
Default : No
Forced : No

Скриншоты

Other forum [Profile] [PM]
Display posts from previous:    
Reply to topic

The time now is: Today 02:54

All times are GMT + 3 Hours



You cannot post new topics in this forum
You cannot reply to topics in this forum
You cannot edit your posts in this forum
You cannot delete your posts in this forum
You cannot vote in polls in this forum
You cannot attach files in this forum
You cannot download files in this forum