Today is a free download without charge Download

Дерево Джошуа (Армия одиночки) / Joshua Tree (Army of One) (Вик Армстронг / Vic Armstrong) [1993, США, Боевик, триллер, драма, криминал, детектив, приклю, BDRip 1080p] MVO (ОРТ) + AVO (ГАВРИЛОВ) + Sub Eng + Original Eng

Reply to topic
 
Author
Message

Omen ®

Longevity: 8 years 5 months

Posts: 181087

Торрент-статистика

Post 01-May-2013 18:07

[Quote]

Дерево Джошуа (Армия одиночки) / Joshua Tree (Army of One)
Страна: США
Студия: Epic Productions, Horned Toad Productions, Stone Group Pictures, Vision International, Zilex N.V.
Жанр: Боевик, триллер, драма, криминал, детектив, приклю
Год выпуска: 1993
Продолжительность: 01:42:12
Перевод: Профессиональный (многоголосый закадровый) ОРТ
Перевод 2: Авторский (одноголосый закадровый) ГАВРИЛОВ
Cубтитры: английские
Оригинальная аудиодорожка: английский
Режиссер: Вик Армстронг / Vic Armstrong
В ролях: Дольф Лундгрен, Джордж Сигал, Кристиан Альфонсо, Джеффри Льюис, Бо Старр, Мишель Филлипс, Мэтт Батталья, Берт Ремсен, Майкл Пол Чан, Кэнди Александр, Маркус Браун, Ник Чинланд, Кен Фори, Эдвард Стоун, Ронди Рид, Анита Брабэц, Джейсон Росс-Эйзикив, Чарли Холлидэй, Джимми Вудард, Тони Эппер, Кен Блейзер, Виктор Кинтеро, Пи Ви Пьемонт, Сигал Дайэмант, Ларри Маркс, Питер Спеллос, Мэри Ингерсолл, Тим Де Зарн, Ронни Ронделл мл., Джеффри Дж. Дашнау, Дэнни Вайнандс, Дэна Дрю Эвенсон, Лила Финн, Уолли Роуз, Денвер Маттсон, Анат Топо
Описание: Автогонщик Сэнти обвинён в убийстве полицейского. Это - дело рук продажного копа Сэверенса, работающего на мафию. Сэнти получил серьёзное ранение, но выжил. Его осудили на пожизненное заключение. Охранники должны были застрелить его, якобы при попытке к бегству, но ему удалось скрыться. Спасаясь от преследователей, он берёт в заложницы красотку, не подозревая, что она — помощник шерифа. Рита — девица не из слабых. Она делает попытку сбежать, но ей это не удаётся. Сэнти сам отпускает её, когда добирается до ранчо своего врага. Но тут уж Рита решает докопаться до сути происходящего...
Сэмпел:http://sendfile.su/804250
Тип релиза: BDRip 1080p
Контейнер: MKV
Видео: MPEG-4 AVC, 8420 Kбит/с, 1920х816
Аудио: Русский (АС3, 2 ch, 192 Кбит/с)- ОРТ
Аудио 2: Русский (АС3, 2 ch, 192 Кбит/с)- ГАВРИЛОВ
Аудио 3: английский (DTS, 6 ch, 1509 Кбит/с)- Original

MediaInfo

Общее
Уникальный идентификатор : 198272405702954377922962685169425802245 (0x9529E057174438558E0089A2C3F16405)
Полное имя : C:\кино\фильмы\Derevo.Dgoshua.1993.x264.BDRip.1080p.mkv
Формат : Matroska
Версия формата : Version 4 / Version 2
Размер файла : 7,51 Гбайт
Продолжительность : 1 ч. 42 м.
Общий поток : 10,5 Мбит/сек
Название фильма : Дерево Джошуа (Армия одиночки) / Joshua Tree (Army of One) / 1993 / BDRip -- STarankov
Дата кодирования : UTC 2010-02-22 21:41:31
Программа кодирования : mkvmerge v5.9.0 ('On The Loose') built on Dec 9 2012 15:37:01
Библиотека кодирования : libebml v1.3.0 + libmatroska v1.4.0
Видео
Идентификатор : 1
Формат : AVC
Формат/Информация : Advanced Video Codec
Профиль формата : [email protected]
Параметр CABAC формата : Да
Параметр ReFrames формата : 4 кадра
Идентификатор кодека : V_MPEG4/ISO/AVC
Продолжительность : 1 ч. 42 м.
Битрейт : 8420 Кбит/сек
Ширина : 1918 пикселей
Высота : 812 пикселей
Соотношение сторон : 2,35:1
Режим частоты кадров : Постоянный
Частота кадров : 23,976 кадра/сек
Цветовое пространство : YUV
Субдискретизация насыщенности : 4:2:0
Битовая глубина : 8 бит
Тип развёртки : Прогрессивная
Бит/(Пиксели*Кадры) : 0.225
Размер потока : 6,01 Гбайт (80%)
Библиотека кодирования : x264 core 130 r2273 b3065e6
Настройки программы : cabac=1 / ref=4 / deblock=1:-1:-1 / analyse=0x3:0x113 / me=umh / subme=9 / psy=1 / psy_rd=1.00:0.15 / mixed_ref=1 / me_range=24 / chroma_me=1 / trellis=2 / 8x8dct=1 / cqm=0 / deadzone=21,11 / fast_pskip=1 / chroma_qp_offset=-3 / threads=6 / lookahead_threads=1 / sliced_threads=0 / nr=0 / decimate=1 / interlaced=0 / bluray_compat=0 / constrained_intra=0 / bframes=8 / b_pyramid=2 / b_adapt=2 / b_bias=0 / direct=1 / weightb=0 / open_gop=0 / weightp=2 / keyint=230 / keyint_min=23 / scenecut=40 / intra_refresh=0 / rc=crf / mbtree=0 / crf=21.0 / qcomp=0.60 / qpmin=0 / qpmax=69 / qpstep=4 / ip_ratio=1.40 / pb_ratio=1.30 / aq=1:1.00
Язык : English
Default : Да
Forced : Нет
Аудио #1
Идентификатор : 2
Формат : AC-3
Формат/Информация : Audio Coding 3
Расширение режима : CM (complete main)
Параметр Endianness формата : Big
Идентификатор кодека : A_AC3
Продолжительность : 1 ч. 42 м.
Вид битрейта : Постоянный
Битрейт : 192 Кбит/сек
Каналы : 2 канала
Расположение каналов : Front: L R
Частота : 48,0 КГц
Битовая глубина : 16 бит
Метод сжатия : С потерями
Размер потока : 140 Мбайт (2%)
Заголовок : MVO
Язык : Russian
Default : Да
Forced : Нет
Аудио #2
Идентификатор : 3
Формат : AC-3
Формат/Информация : Audio Coding 3
Расширение режима : CM (complete main)
Параметр Endianness формата : Big
Идентификатор кодека : A_AC3
Продолжительность : 1 ч. 42 м.
Вид битрейта : Постоянный
Битрейт : 192 Кбит/сек
Каналы : 2 канала
Расположение каналов : Front: L R
Частота : 48,0 КГц
Битовая глубина : 16 бит
Метод сжатия : С потерями
Размер потока : 140 Мбайт (2%)
Заголовок : AVO (Андрей Гаврилов)
Язык : Russian
Default : Нет
Forced : Нет
Аудио #3
Идентификатор : 4
Формат : DTS
Формат/Информация : Digital Theater Systems
Режим : 16
Параметр Endianness формата : Big
Идентификатор кодека : A_DTS
Продолжительность : 1 ч. 42 м.
Вид битрейта : Постоянный
Битрейт : 1509 Кбит/сек
Каналы : 6 каналов
Расположение каналов : Front: L C R, Side: L R, LFE
Частота : 48,0 КГц
Битовая глубина : 24 бит
Метод сжатия : С потерями
Размер потока : 1,08 Гбайт (14%)
Заголовок : Original
Язык : English
Default : Нет
Forced : Нет
Текст
Идентификатор : 5
Формат : UTF-8
Идентификатор кодека : S_TEXT/UTF8
Идентификатор кодека/Информация : UTF-8 Plain Text
Заголовок : английский
Язык : English
Default : Нет
Forced : Нет

Скриншоты

Other forum [Profile] [PM]
Display posts from previous:    
Reply to topic

The time now is: Today 09:54

All times are GMT + 3 Hours



You cannot post new topics in this forum
You cannot reply to topics in this forum
You cannot edit your posts in this forum
You cannot delete your posts in this forum
You cannot vote in polls in this forum
You cannot attach files in this forum
You cannot download files in this forum