Today is a free download without charge Download

Простые истины / Straight A's (Джеймс Кокс / James Cox) [2013, США, драма, комедия, BDRemux 1080p] MVO (R5) + DVO (НТВ+)+ Original (Eng) + Subs (Eng)

Reply to topic
 
Author
Message

Omen ®

Longevity: 8 years 5 months

Posts: 181087

Торрент-статистика

Post 01-May-2013 18:07

[Quote]

Простые истины / Straight A's

-
-Страна: США
Студия: Group Films, The, Millennium Films, Nu-Image Films
Жанр: драма, комедия
Год выпуска: 2013
Продолжительность:01:28:20--Перевод 1: Профессиональный (многоголосый закадровый) R5
Перевод 2: Профессиональный (двухголосый закадровый) НТВ+
Cубтитры: английские
Оригинальная аудиодорожка: английский--Режиссер: Джеймс Кокс / James Cox
В ролях: Райан Филипп, Анна Пэкуин, Люк Уилсон, Райли Стюарт, Урсула Паркер, Ампаро Гарсия-Кроу, Огустен Солис, Тесс Харпер, Пауэрс Бут, Криста Кэмпбелл--Описание: Молодой человек на протяжении десяти лет регулярно проходил курс лечения в реабилитационном центре. По настоянию духа его покойной матери он возвращается к родным, от которых отдалился много лет назад. В результате он встречается со своим братом и его женой, которая до сих пор в него влюблена.--imdb | kinopoisk | Сэмпл--Тип релиза: BDRemux 1080p [Straight As 2013 1080p BRA Blu-ray AVC DTS-HD MA 5.1-DON]
Контейнер: MKV
Видео: MPEG-4 AVC / 24325 kbps / 1920x1080 / 23,976 fps / 16:9 / High Profile 4.1
Аудио 1: AC3 / 2.0 / 48 kHz / 192 kbps / 16 bits |MVO, R5|
Аудио 2: AC3 / 2.0 / 48 kHz / 192 kbps / 16 bits |DVO, НТВ+|
Аудио 3: DTS-HD Master Audio / 5.1 / 48 kHz / 1876 kbps / 16 bits (DTS Core: 5.1 / 48 kHz / 1510 kbps / 16 bits) |original|
Формат субтитров: softsub [SRT]

MediaInfo

ОбщееУникальный идентификатор : 175409246348878298192239179436443771111 (0x83F6978DBE1A15789949034DE20F20E7)Полное имя : G:\HD\Простые истины.2013.Blu-Ray.Remux.(1080p).mkvФормат : MatroskaВерсия формата : Version 2Размер файла : 16,4 ГбайтПродолжительность : 1 ч. 28 м.Режим общего битрейта : ПеременныйОбщий поток : 26,5 Мбит/секДата кодирования : UTC 2013-04-30 12:54:54Программа кодирования : mkvmerge v5.8.0 ('No Sleep / Pillow') built on Sep 2 2012 15:37:04Библиотека кодирования : libebml v1.2.3 + libmatroska v1.3.0
ВидеоИдентификатор : 1Формат : AVCФормат/Информация : Advanced Video CodecПрофиль формата : [email protected]Параметр CABAC формата : ДаПараметр ReFrames формата : 4 кадраРежим смешивания : Container [email protected]Идентификатор кодека : V_MPEG4/ISO/AVCПродолжительность : 1 ч. 28 м.Вид битрейта : ПеременныйМаксимальный битрейт : 30,0 Мбит/секШирина : 1920 пикселейВысота : 1080 пикселейСоотношение сторон : 16:9Режим частоты кадров : ПостоянныйЧастота кадров : 23,976 кадра/секСтандарт вещания : NTSCЦветовое пространство : YUVСубдискретизация насыщенности : 4:2:0Битовая глубина : 8 битТип развёртки : ПрогрессивнаяDefault : ДаForced : НетОсновные цвета : BT.709Характеристики трансфера : BT.709Коэффициенты матрицы : BT.709
Аудио #1Идентификатор : 2Формат : AC-3Формат/Информация : Audio Coding 3Расширение режима : CM (complete main)Параметр Endianness формата : BigИдентификатор кодека : A_AC3Продолжительность : 1 ч. 28 м.Вид битрейта : ПостоянныйБитрейт : 192 Кбит/секКаналы : 2 каналаРасположение каналов : Front: L RЧастота : 48,0 КГцБитовая глубина : 16 битМетод сжатия : С потерямиРазмер потока : 122 Мбайт (1%)Заголовок : MVO, R5Язык : RussianDefault : НетForced : Нет
Аудио #2Идентификатор : 3Формат : AC-3Формат/Информация : Audio Coding 3Расширение режима : CM (complete main)Параметр Endianness формата : BigИдентификатор кодека : A_AC3Продолжительность : 1 ч. 28 м.Вид битрейта : ПостоянныйБитрейт : 192 Кбит/секКаналы : 2 каналаРасположение каналов : Front: L RЧастота : 48,0 КГцБитовая глубина : 16 битМетод сжатия : С потерямиРазмер потока : 122 Мбайт (1%)Заголовок : DVO, НТВ+Язык : RussianDefault : ДаForced : Нет
Аудио #3Идентификатор : 4Формат : DTSФормат/Информация : Digital Theater SystemsПрофиль формата : MA / CoreРежим : 16Параметр Endianness формата : BigИдентификатор кодека : A_DTSПродолжительность : 1 ч. 28 м.Вид битрейта : ПеременныйБитрейт : Неизвестно / 1509 Кбит/секКаналы : 6 каналовРасположение каналов : Front: L C R, Side: L R, LFEЧастота : 48,0 КГцБитовая глубина : 16 битМетод сжатия : Без потерь / LossyЯзык : EnglishDefault : НетForced : Нет
ТекстИдентификатор : 5Формат : UTF-8Идентификатор кодека : S_TEXT/UTF8Идентификатор кодека/Информация : UTF-8 Plain TextЯзык : EnglishDefault : НетForced : Нет
Меню00:00:00.000 : :Chapter 0100:11:00.242 : :Chapter 0200:20:01.241 : :Chapter 0300:27:42.077 : :Chapter 0400:38:39.066 : :Chapter 0500:48:41.084 : :Chapter 0600:58:24.876 : :Chapter 0701:09:54.189 : :Chapter 0801:20:23.026 : :Chapter 0901:24:47.999 : :Chapter 10

Скриншоты


Other forum [Profile] [PM]
Similar theme
Forum Topic Author Torrent Replies Last Post
./templates/default/images/folder_dl.gif Документальные фильмы и телепередачи Я просто живу... Вечер-посвящение Микаэлу Таривердиеву (2012) IPTVRip от Files-x Omen
0 | 1

0 | 795

0

2013-01-30 04:43
Omen Latest
./templates/default/images/folder_dl.gif Техническая и научно-популярная литература Э.Б.Кузнецов | Звуковая аппаратура для простых систем звукоусиления [2012] [PDF] UndegraundMen
1 | 0

0 | 874

0

2013-08-04 17:03
UndegraundMen Latest
./templates/default/images/folder_dl.gif Техническая и научно-популярная литература О.В.Головин, С.П.Простов | Системы и устройства коротковолновой радиосвязи [2006] [DJVU] UndegraundMen
1 | 0

0 | 790

1

2013-08-29 11:00
UndegraundMen Latest
./templates/default/images/folder_dl.gif Современная проза, классика, поэзия Вишневский Януш - Прости… [Валерий Кухарешин, 2016 г., 128 kbps, MP3] Omen
1 | 0

0 | 568

0

2016-07-22 01:01
Omen Latest
Display posts from previous:    
Reply to topic

The time now is: Today 10:17

All times are GMT + 3 Hours



You cannot post new topics in this forum
You cannot reply to topics in this forum
You cannot edit your posts in this forum
You cannot delete your posts in this forum
You cannot vote in polls in this forum
You cannot attach files in this forum
You cannot download files in this forum