Today is a free download without charge Download

Хвост / Thale (Александер Нордос / Aleksander Nordaas) [2012, Норвегия, ужасы, фэнтези, триллер, детектив, BDRip 720p] [GER Transfer] MVO + VO (den904) + Original (Nor) + Subs (Eng, Dan, Fin, Nor, Swe)

Reply to topic
 
Author
Message

Omen ®

Longevity: 8 years 5 months

Posts: 181087

Торрент-статистика

Post 01-May-2013 18:07

[Quote]

Хвост / Thale Страна: Норвегия
Студия: Film Fund FUZZ (in co-operation with), Yesbox Productions
Жанр: триллер, комедия
Год выпуска: 2012
Продолжительность: 01:18:00
Перевод:
  • Профессиональный (многоголосый закадровый) ivi
  • Одноголосый закадровый den904 // Перевод: Janetta
Cубтитры: датские, шведские, норвежские, финские, английские (fansub)
Оригинальная аудиодорожка: норвежский
Режиссер: Александер Нордос / Aleksander Nordaas
В ролях: Силье Рейномо, Эрленд Нервольд, Йон Сигве Скард, Мортен Андресен, Роланд Астранд, Суннива Лиен
Описание:
Фильм основан на мифическом персонаже из норвежского фольклора, которого называют Хулдра. Согласно мифу Хулдра — прекрасная женщина, живущая в лесу, соблазняющая и убивающая мужчин. Она поет красивые песни, манит их к себе в глубь леса прекрасным телом, и затем убивает. Узнать ее можно лишь по наличию коровьего хвоста…
- || -Тип релиза: BDRip 720p (рип от HDChina)
Контейнер: MKV
Видео: AVC (x264), 1280x720 (16:9) at 24,000 fps, 8520 Кbps, 0.385 bpp
Аудио 1: AC3; 192 Kbps; CBR; 2 ch; 48 khz | P, MVO |
Аудио 2: DTS; 1536 Kbps; CBR; 6 ch; 48 khz; 24 bit | VO - den904 |
Аудио 3: DTS; 1536 Kbps; CBR; 6 ch; 48 khz; 16 bit | Норвежский |
Формат субтитров: softsub (SRT)

Скриншоты || x264 Info || MediaInfo || Notes

Notes:

Цитата:
  • Аудио дорожка №1, записана мной с онлайн кинотеатра., сравнение спектров моей дорожки и той что гуляет по сети.
  • Английские субтитры, что гуляют по сети - машинный перевод, в данной раздаче производные от них - но с правками и многочисленными коррекциями. за них спасибо Sabriel и kinosei

MediaInfo

Код:
Общее
Уникальный идентификатор                 : 194868501616067067231248285699676556225 (0x929A4EE957B50522A39075A33623CBC1)
Полное имя                               : Хвост.2012.P.720p.BluRay.x264-HDChina.mkv
Формат                                   : Matroska
Версия формата                           : Version 4 / Version 2
Размер файла                             : 6,39 Гбайт
Продолжительность                        : 1 ч. 18 м.
Общий поток                              : 11,7 Мбит/сек
Название фильма                          : profile.php?mode=viewprofile&u=22488948
Дата кодирования                         : UTC 2013-04-30 17:19:56
Программа кодирования                    : mkvmerge v6.2.0 ('Promised Land') built on Apr 28 2013 12:22:01
Библиотека кодирования                   : libebml v1.3.0 + libmatroska v1.4.0
Видео
Идентификатор                            : 1
Формат                                   : AVC
Формат/Информация                        : Advanced Video Codec
Профиль формата                          : [email protected]
Параметр CABAC формата                   : Да
Параметр ReFrames формата                : 9 кадров
Идентификатор кодека                     : V_MPEG4/ISO/AVC
Продолжительность                        : 1 ч. 18 м.
Битрейт                                  : 8520 Кбит/сек
Ширина                                   : 1280 пикселей
Высота                                   : 720 пикселей
Соотношение сторон                       : 16:9
Режим частоты кадров                     : Постоянный
Частота кадров                           : 24,000 кадра/сек
Цветовое пространство                    : YUV
Субдискретизация насыщенности            : 4:2:0
Битовая глубина                          : 8 бит
Тип развёртки                            : Прогрессивная
Бит/(Пиксели*Кадры)                      : 0.385
Размер потока                            : 4,51 Гбайт (71%)
Библиотека кодирования                   : x264 core 129 r2230 1cffe9f
Настройки программы                      : cabac=1 / ref=9 / deblock=1:-3:-3 / analyse=0x3:0x133 / me=umh / subme=10 / psy=1 / psy_rd=1.00:0.10 / mixed_ref=1 / me_range=48 / chroma_me=1 / trellis=2 / 8x8dct=1 / cqm=0 / deadzone=21,11 / fast_pskip=0 / chroma_qp_offset=-3 / threads=12 / lookahead_threads=2 / sliced_threads=0 / nr=0 / decimate=0 / interlaced=0 / bluray_compat=0 / constrained_intra=0 / bframes=8 / b_pyramid=2 / b_adapt=2 / b_bias=0 / direct=3 / weightb=1 / open_gop=0 / weightp=2 / keyint=360 / keyint_min=2 / scenecut=40 / intra_refresh=0 / rc_lookahead=60 / rc=2pass / mbtree=1 / bitrate=8520 / ratetol=1.0 / qcomp=0.70 / qpmin=0 / qpmax=69 / qpstep=4 / cplxblur=20.0 / qblur=0.5 / vbv_maxrate=50000 / vbv_bufsize=30000 / nal_hrd=none / ip_ratio=1.10 / aq=2:1.00
Язык                                     : English
Default                                  : Да
Forced                                   : Нет
Аудио #1
Идентификатор                            : 2
Формат                                   : AC-3
Формат/Информация                        : Audio Coding 3
Расширение режима                        : CM (complete main)
Параметр Endianness формата              : Big
Идентификатор кодека                     : A_AC3
Продолжительность                        : 1 ч. 18 м.
Вид битрейта                             : Постоянный
Битрейт                                  : 192 Кбит/сек
Каналы                                   : 2 канала
Расположение каналов                     : Front: L R
Частота                                  : 48,0 КГц
Битовая глубина                          : 16 бит
Метод сжатия                             : С потерями
Размер потока                            : 107 Мбайт (2%)
Заголовок                                : P, MVO [ivi]
Язык                                     : Russian
Default                                  : Да
Forced                                   : Нет
Аудио #2
Идентификатор                            : 3
Формат                                   : DTS
Формат/Информация                        : Digital Theater Systems
Режим                                    : 16
Параметр Endianness формата              : Big
Идентификатор кодека                     : A_DTS
Продолжительность                        : 1 ч. 18 м.
Вид битрейта                             : Постоянный
Битрейт                                  : 1510 Кбит/сек
Каналы                                   : 6 каналов
Расположение каналов                     : Front: L C R, Side: L R, LFE
Частота                                  : 48,0 КГц
Битовая глубина                          : 24 бит
Метод сжатия                             : С потерями
Размер потока                            : 842 Мбайт (13%)
Заголовок                                : VO [den904]
Язык                                     : Russian
Default                                  : Нет
Forced                                   : Нет
Аудио #3
Идентификатор                            : 4
Формат                                   : DTS
Формат/Информация                        : Digital Theater Systems
Режим                                    : 16
Параметр Endianness формата              : Big
Идентификатор кодека                     : A_DTS
Продолжительность                        : 1 ч. 18 м.
Вид битрейта                             : Постоянный
Битрейт                                  : 1509 Кбит/сек
Каналы                                   : 6 каналов
Расположение каналов                     : Front: L C R, Side: L R, LFE
Частота                                  : 48,0 КГц
Битовая глубина                          : 16 бит
Метод сжатия                             : С потерями
Размер потока                            : 842 Мбайт (13%)
Язык                                     : Norwegian
Default                                  : Нет
Forced                                   : Нет
Текст #1
Идентификатор                            : 5
Формат                                   : UTF-8
Идентификатор кодека                     : S_TEXT/UTF8
Идентификатор кодека/Информация          : UTF-8 Plain Text
Заголовок                                : by Jesse51ez || Sabriel || kinosei || G00ba
Язык                                     : English
Default                                  : Нет
Forced                                   : Нет
Текст #2
Идентификатор                            : 6
Формат                                   : UTF-8
Идентификатор кодека                     : S_TEXT/UTF8
Идентификатор кодека/Информация          : UTF-8 Plain Text
Язык                                     : Danish
Default                                  : Нет
Forced                                   : Нет
Текст #3
Идентификатор                            : 7
Формат                                   : UTF-8
Идентификатор кодека                     : S_TEXT/UTF8
Идентификатор кодека/Информация          : UTF-8 Plain Text
Язык                                     : Finnish
Default                                  : Нет
Forced                                   : Нет
Текст #4
Идентификатор                            : 8
Формат                                   : UTF-8
Идентификатор кодека                     : S_TEXT/UTF8
Идентификатор кодека/Информация          : UTF-8 Plain Text
Язык                                     : Norwegian
Default                                  : Нет
Forced                                   : Нет
Текст #5
Идентификатор                            : 9
Формат                                   : UTF-8
Идентификатор кодека                     : S_TEXT/UTF8
Идентификатор кодека/Информация          : UTF-8 Plain Text
Язык                                     : Swedish
Default                                  : Нет
Forced                                   : Нет
Меню
00:00:00.000                             : de:00:00:00.000
00:08:11.208                             : de:00:08:11.208
00:14:44.583                             : de:00:14:44.583
00:20:19.625                             : de:00:20:19.625
00:26:45.375                             : de:00:26:45.375
00:32:23.875                             : de:00:32:23.875
00:39:43.500                             : de:00:39:43.500
00:46:37.750                             : de:00:46:37.750
00:52:17.208                             : de:00:52:17.208
00:59:20.875                             : de:00:59:20.875
01:05:19.000                             : de:01:05:19.000
01:14:23.167                             : de:01:14:23.167

x264 Info

x264 [info]: frame I:599 Avg QP:16.70 size:132897
x264 [info]: frame P:21332 Avg QP:17.83 size: 74272
x264 [info]: frame B:90401 Avg QP:19.74 size: 36659
x264 [info]: consecutive B-frames: 1.7% 1.6% 3.9% 13.4% 12.9% 31.4% 15.7% 13.1% 6.2%

Source vs Encode

HDChina......vs.......NorTVGERMAN BluRay..............NORDiC BluRay

Other forum [Profile] [PM]
Display posts from previous:    
Reply to topic

The time now is: Today 10:04

All times are GMT + 3 Hours



You cannot post new topics in this forum
You cannot reply to topics in this forum
You cannot edit your posts in this forum
You cannot delete your posts in this forum
You cannot vote in polls in this forum
You cannot attach files in this forum
You cannot download files in this forum