Today is a free download without charge Download

Джентльмены предпочитают блондинок / Gentlemen Prefer Blondes (Ховард Хоукс) [Драма, Мелодрама, Комедия, Мюзикл, 1953] BDRip (H.264)

Reply to topic
 
Author
Message

Omen ®

Longevity: 8 years 11 months

Posts: 181086

Торрент-статистика

Post 01-May-2013 16:48

[Quote]

Джентльмены предпочитают блондинок
Gentlemen Prefer Blondes
-«The Two M-M-Marvels Of Our Age In The Wonder Musical Of The World!»- Русское название: Джентльмены предпочитают блондинок
Оригинальное название: Gentlemen Prefer Blondes
Год выпуска: 1953
Жанр: Драма, Мелодрама, Комедия, Мюзикл
Страна: США
Производство: 20th Century Fox Film Corporation
Описание фильма:
Шоу-герлз Лорелей и Дороти отправляются на гастроли в Париж. За ними тайно следит частный детектив, нанятый отцом миллионером, чтобы доказать сыну, что Лорелей любит его подарки.
Режиссер: Ховард Хоукс
Сценарий: Чарльз Ледерер, Джозеф Филдс, Анита Лус
Продюсер: Сол С. Сигел
Актеры: Джейн Расселл, Мэрилин Монро, Чарльз Коберн, Эллиот Рид, Томми Нунан, Джордж Уинслоу, Марсель Далио, Тейлор Холмс, Норма Варден, Ховард Уенделл
Продолжительность: 01:31:25
Перевод: Дублированный (20 Век Фокс СНГ BD)
Субтитры: Отсутствуют

Дата мировой премьеры: 1 июля 1953
Дата выхода DVD релиза: 5 февраля 2009, «Двадцатый Век Фокс СНГ»
Видеокодек: MPEG-4 AVC/H.264
Битрейт видео: ~2700 Кбит/сек
Размер кадра: 1024x744
Качество видео: BDRip
Аудиокодек: DTS 5.1
Битрейт аудио: 768 kbps

Знаете ли вы, что...

В этом фильме Монро впервые исполнила песню «Diamonds Are a Girl`s Best Friend», которая в ее исполнении вошла в золотую коллекцию песен из кинофильмов 50-х годов.
Модель судна, которая использовалась в фильме, осталась со съемок «Титаника». Ее только слегка подретушировали, чтобы по форме она напоминала лайнер «Королева Мэри».
Планировалось, что Монро будут дублировать: ее голос казался директорам студии «слишком глупым».
Несмотря на то, что режиссеру Говарду Хоуксу нравился отснятый материал, Мэрилин настаивала на новых дублях. Как-то раз продюсер спросил у Хоукса: «Можешь ускорить съемки фильма?». Хоукс ответил: «Для этого надо сделать три вещи: уволить Монро, переписать сценарий, сделав его короче, и нанять нового режиссера».
Поначалу студия «ХХ век — Фокс» планировала задействовать на роли Лолы актрису Бетти Грэйбл. Успех фильма «Ниагара» заставил директоров обратить внимание на Мэрилин Монро. В конце концов, роль досталась Мэрилин. Выгодная сделка: Мэрилин заплатили 18 тысяч долларов, в то время как Грэйбл пришлось бы отдать 150 тысяч.

Реценция с кинопоиска от Michelle Regnier:

Моя любимая Мэрилин
Просто удивительной красоты фильм. Волшебные музыкальные номера, красивые костюмы, забавный сюжет, искрометный юмор и… Мэрилин Монро.
Музыкальный номер Diamonds Are a Girls Best Friend вообще вошел в историю музыкальной и киноиндустрии как один из самых известных, пародируемых и перепеваемых номеров. Ну, кто не знает этой песни?Да даже самой этой фразы.
О сюжете говорить не буду, скажу лишь, этот фильм не потерял своей актуальности, он очень легок и поднимает настроение. Смотреть всем!И не только тем, кто любит музыкальные фильмы, ибо музыка здесь ненавязчива и приятна.
10 из 10

MediaInfo:

General
Unique ID : 246066724337501551291130239234095409899 (0xB91EBA2E7D8B894289B870A8A21F6AEB)
Complete name : H:\Downloads\Джентльмены предпочитают блондинок.mkv
Format : Matroska
Format version : Version 4 / Version 2
File size : 2.22 GiB
Duration : 1h 31mn
Overall bit rate : 3 470 Kbps
Encoded date : UTC 2013-04-27 03:44:40
Writing application : mkvmerge v6.0.0 ('Coming Up For Air') built on Jan 20 2013 09:52:00
Writing library : libebml v1.3.0 + libmatroska v1.4.0
Video
ID : 1
Format : AVC
Format/Info : Advanced Video Codec
Format profile : [url=mailto:[email protected]][email protected][/url]
Format settings, CABAC : Yes
Format settings, ReFrames : 8 frames
Codec ID : V_MPEG4/ISO/AVC
Duration : 1h 31mn
Bit rate : 2 700 Kbps
Width : 1 024 pixels
Height : 744 pixels
Display aspect ratio : 1.376
Frame rate mode : Constant
Frame rate : 23.976 fps
Color space : YUV
Chroma subsampling : 4:2:0
Bit depth : 8 bits
Scan type : Progressive
Bits/(Pixel*Frame) : 0.148
Stream size : 1.68 GiB (76%)
Title : Gentlemen Prefer Blondes
Writing library : x264 core 125 r2208 d9d2288
Encoding settings : cabac=1 / ref=8 / deblock=1:-1:-1 / analyse=0x3:0x133 / me=umh / subme=9 / psy=1 / psy_rd=1.00:0.10 / mixed_ref=1 / me_range=32 / chroma_me=1 / trellis=2 / 8x8dct=1 / cqm=0 / deadzone=21,11 / fast_pskip=0 / chroma_qp_offset=-3 / threads=6 / lookahead_threads=1 / sliced_threads=0 / nr=0 / decimate=1 / interlaced=0 / bluray_compat=0 / constrained_intra=0 / bframes=3 / b_pyramid=2 / b_adapt=2 / b_bias=0 / direct=3 / weightb=1 / open_gop=0 / weightp=2 / keyint=250 / keyint_min=25 / scenecut=40 / intra_refresh=0 / rc_lookahead=50 / rc=2pass / mbtree=1 / bitrate=2700 / ratetol=1.0 / qcomp=0.60 / qpmin=10 / qpmax=51 / qpstep=4 / cplxblur=20.0 / qblur=0.5 / ip_ratio=1.40 / aq=1:1.00
Language : English
Default : Yes
Forced : No
Audio
ID : 2
Format : DTS
Format/Info : Digital Theater Systems
Mode : 16
Format settings, Endianness : Big
Codec ID : A_DTS
Duration : 1h 31mn
Bit rate mode : Constant
Bit rate : 768 Kbps
Channel(s) : 6 channels
Channel positions : Front: L C R, Side: L R, LFE
Sampling rate : 48.0 KHz
Bit depth : 24 bits
Compression mode : Lossy
Stream size : 502 MiB (22%)
Title : Дублированный - 20 Век Фокс СНГ BD
Language : Russian
Default : Yes
Forced : No
Скриншоты:          
         
Other forum [Profile] [PM]
Display posts from previous:    
Reply to topic

The time now is: Today 12:06

All times are GMT + 3 Hours



You cannot post new topics in this forum
You cannot reply to topics in this forum
You cannot edit your posts in this forum
You cannot delete your posts in this forum
You cannot vote in polls in this forum
You cannot attach files in this forum
You cannot download files in this forum