Today is a free download without charge Download

Клеопатра / Cleopatra (Джозеф Лео Манкевич / Joseph Leo Mankiewicz) [1963, Великобритания, США, Швейцария, драма, мелодрама, биография, история, BDRip 1080p] Dub + MVO + Sub Rus/Eng + Original Eng

Reply to topic
 
Author
Message

Omen ®

Longevity: 8 years 5 months

Posts: 181087

Торрент-статистика

Post 01-May-2013 14:03

[Quote]

Клеопатра / Cleopatra
Страна: Великобритания, США, Швейцария
Студия: 20th Century Fox Film Corporation, MCL Films S.A., Walwa Films S.A.
Жанр: драма, мелодрама, биография, история
Год выпуска: 1963
Продолжительность: 04:11:08
Перевод: Профессиональный (дублированный с двухголосыми вставками в вырезанных в советском прокате лакунах)
Перевод 2: Профессиональный (многоголосый закадровый)
Cубтитры: русские, английские
Оригинальная аудиодорожка: английский
Режиссер: Джозеф Лео Манкевич / Joseph Leo Mankiewicz
В ролях: Элизабет Тейлор, Ричард Бёртон, Рекс Харрисон, Памела Браун, Джордж Коул, Хьюм Кронин, Чезаре Данова, Кеннет Хейг, Эндрю Кир, Мартин Ландау, Родди МакДауэлл, Роберт Стивенс, Франческа Эннис, Грегуар Аслан, Мартин Бенсон, Херберт Бергхоф, Джон Кэйрни, Жак Чан, Изабель Кули, Джон Дусетт, Эндрю Фолдс, Майкл Гвинн, Майкл Хордерн, Джон Хойт, Марни Мейтленд, Кэррол О’Коннор, Ричард О’Салливан, Гвен Уотфорд, Дуглас Уилмер, Элизабет Уэлш, Джон Алдерсон, Джон Элдертон, Рональд Аллен, Одри Андерсон, Мария Бадмаев, Мишель Байли, Марина Берти
Роли дублировали: Лариса Данилина, Анатолий Кузнецов, Владимир Дружников, Юрий Леонидов, Олег Голубицкий
Описание: События фильма разворачиваются в первом веке до нашей эры в Древнем Риме и Египте. Сюжет повествует историю жизни и любви царицы Египта Клеопатры VII Филопатор из рода Птолемеев.
Прекрасная Клеопатра, знаменитая царица Египта, готова на все ради сохранения величия своего народа. Соблазняя великих правителей Рима — Цезаря, Марка Антония — она мечтает об объединении Египта и Рима в одну большую империю...
* Примечание: рекомендую смотреть в многоголосом закадровом переводе. В дубляже несколько смещены смысловые акценты и не переведены некоторые реплики.

Оскар, 1964 год
Победитель (4):
Лучшая работа оператора (цветные фильмы)
Лучшая работа художника (цветные фильмы)
Лучшая работа художника по костюмам (цветные фильмы)
Лучшие визуальные эффекты
Номинации (5):
Лучший фильм
Лучшая мужская роль (Рекс Харрисон)
Лучший звук
Лучший монтаж
Лучший саундтрек
Золотой глобус, 1964 год
Номинации (4):
Лучшая мужская роль (драма) (Рекс Харрисон)
Лучший фильм (драма)
Лучший режиссер (Джозеф Лео Манкевич)
Лучшая мужская роль второго плана (Родди МакДауэлл)

Доп. информация: Сохранены оригинальные чаптеры
За подготовку звуковых дорожек №1, №2 большое спасибо KpucTo161
Сэмпл: http://multi-up.com/860905
Тип релиза: BDRip 1080p
Контейнер: MKV
Видео: H264 AVC, 1920х868 (2.2:1), 9930 Kbps, 23.976 fps, 0.249 bit/pixel
Аудио: 48.0 kHz, AC3 Dolby Digital, 2/0 (L,R) ch, 192 kbps [Дубляж, с двухголосыми вставками]
Аудио 2: 48.0 kHz, AC3 Dolby Digital, 3/2 (L,C,R,l,r) + LFE ch, 640 kbps [Многоголосый, Blu-ray EUR]
Аудио 3: 48.0 kHz, AC3 Dolby Digital, 3/2 (L,C,R,l,r) + LFE ch, 640 kbps [Английский]
Формат субтитров: встроенные, отключаемые

MediaInfo

Общее
Уникальный идентификатор : 252729376092717215507794710479328432790 (0xBE21E846683655949D5E76AA3412D296)
Полное имя : E:\Kleopatra_1963.BDRip.1080p.mkv
Формат : Matroska
Версия формата : Version 4 / Version 2
Размер файла : 20,0 Гбайт
Продолжительность : 4 ч. 11 м.
Общий поток : 11,4 Мбит/сек
Дата кодирования : UTC 2013-03-13 15:44:10
Программа кодирования : mkvmerge v6.1.0 ('Old Devil') built on Mar 2 2013 14:32:37
Библиотека кодирования : libebml v1.3.0 + libmatroska v1.4.0
Видео
Идентификатор : 1
Формат : AVC
Формат/Информация : Advanced Video Codec
Профиль формата : [email protected]
Параметр CABAC формата : Да
Параметр ReFrames формата : 4 кадра
Идентификатор кодека : V_MPEG4/ISO/AVC
Продолжительность : 4 ч. 11 м.
Битрейт : 9930 Кбит/сек
Ширина : 1920 пикселей
Высота : 868 пикселей
Соотношение сторон : 2,2:1
Режим частоты кадров : Постоянный
Частота кадров : 23,976 кадра/сек
Цветовое пространство : YUV
Субдискретизация насыщенности : 4:2:0
Битовая глубина : 8 бит
Тип развёртки : Прогрессивная
Бит/(Пиксели*Кадры) : 0.249
Размер потока : 17,0 Гбайт (85%)
Библиотека кодирования : x264 core 130 r2273 b3065e6
Настройки программы : cabac=1 / ref=4 / deblock=1:-2:-2 / analyse=0x3:0x133 / me=tesa / subme=11 / psy=1 / psy_rd=1.00:0.10 / mixed_ref=1 / me_range=32 / chroma_me=1 / trellis=2 / 8x8dct=1 / cqm=0 / deadzone=21,11 / fast_pskip=0 / chroma_qp_offset=-3 / threads=12 / lookahead_threads=1 / sliced_threads=0 / nr=0 / decimate=0 / interlaced=0 / bluray_compat=0 / constrained_intra=0 / bframes=3 / b_pyramid=2 / b_adapt=2 / b_bias=0 / direct=3 / weightb=1 / open_gop=0 / weightp=2 / keyint=240 / keyint_min=23 / scenecut=40 / intra_refresh=0 / rc_lookahead=60 / rc=2pass / mbtree=1 / bitrate=9930 / ratetol=1.0 / qcomp=0.60 / qpmin=0 / qpmax=69 / qpstep=4 / cplxblur=20.0 / qblur=0.5 / ip_ratio=1.40 / aq=1:1.00
Язык : English
Default : Да
Forced : Нет
Аудио #1
Идентификатор : 2
Формат : AC-3
Формат/Информация : Audio Coding 3
Расширение режима : CM (complete main)
Параметр Endianness формата : Big
Идентификатор кодека : A_AC3
Продолжительность : 4 ч. 11 м.
Вид битрейта : Постоянный
Битрейт : 192 Кбит/сек
Каналы : 2 канала
Расположение каналов : Front: L R
Частота : 48,0 КГц
Битовая глубина : 16 бит
Метод сжатия : С потерями
Задержка видео : 23 мс.
Размер потока : 345 Мбайт (2%)
Заголовок : AC3 2.0ch 192 kbps - Дубляж, с двухголосыми вставками
Язык : Russian
Default : Да
Forced : Нет
Аудио #2
Идентификатор : 3
Формат : AC-3
Формат/Информация : Audio Coding 3
Расширение режима : CM (complete main)
Параметр Endianness формата : Big
Идентификатор кодека : A_AC3
Продолжительность : 4 ч. 11 м.
Вид битрейта : Постоянный
Битрейт : 640 Кбит/сек
Каналы : 6 каналов
Расположение каналов : Front: L C R, Side: L R, LFE
Частота : 48,0 КГц
Битовая глубина : 16 бит
Метод сжатия : С потерями
Задержка видео : 23 мс.
Размер потока : 1,12 Гбайт (6%)
Заголовок : AC3 5.1ch 640 kbps - Многоголосый, Blu-ray EUR
Язык : Russian
Default : Нет
Forced : Нет
Аудио #3
Идентификатор : 4
Формат : AC-3
Формат/Информация : Audio Coding 3
Расширение режима : CM (complete main)
Параметр Endianness формата : Big
Идентификатор кодека : A_AC3
Продолжительность : 4 ч. 11 м.
Вид битрейта : Постоянный
Битрейт : 640 Кбит/сек
Каналы : 6 каналов
Расположение каналов : Front: L C R, Side: L R, LFE
Частота : 48,0 КГц
Битовая глубина : 16 бит
Метод сжатия : С потерями
Задержка видео : 23 мс.
Размер потока : 1,12 Гбайт (6%)
Заголовок : AC3 5.1ch 640 kbps - Английский
Язык : English
Default : Нет
Forced : Нет
Текст #1
Идентификатор : 5
Формат : UTF-8
Идентификатор кодека : S_TEXT/UTF8
Идентификатор кодека/Информация : UTF-8 Plain Text
Заголовок : Русские
Язык : Russian
Default : Нет
Forced : Нет
Текст #2
Идентификатор : 6
Формат : UTF-8
Идентификатор кодека : S_TEXT/UTF8
Идентификатор кодека/Информация : UTF-8 Plain Text
Заголовок : Английские
Язык : English
Default : Нет
Forced : Нет
Меню
00:00:00.000 : :Chapter 01
00:02:29.149 : :Chapter 02
00:04:56.169 : :Chapter 03
00:09:14.428 : :Chapter 04
00:18:11.506 : :Chapter 05
00:28:03.514 : :Chapter 06
00:32:19.771 : :Chapter 07
00:37:31.498 : :Chapter 08
00:43:50.460 : :Chapter 09
00:48:15.516 : :Chapter 10
00:49:53.823 : :Chapter 11
00:52:47.789 : :Chapter 12
00:57:49.298 : :Chapter 13
01:02:28.244 : :Chapter 14
01:06:10.674 : :Chapter 15
01:08:03.495 : :Chapter 16
01:14:00.644 : :Chapter 17
01:16:51.523 : :Chapter 18
01:20:36.456 : :Chapter 19
01:29:57.600 : :Chapter 20
01:31:11.465 : :Chapter 21
01:37:02.316 : :Chapter 22
01:41:45.515 : :Chapter 23
01:46:30.216 : :Chapter 24
01:51:30.349 : :Chapter 25
01:56:56.842 : :Chapter 26
01:59:34.500 : :Chapter 27
02:05:00.091 : :Chapter 28
02:09:35.199 : :Chapter 29
02:13:05.200 : :Chapter 30
02:20:21.218 : :Chapter 31
02:28:19.280 : :Chapter 32
02:34:41.370 : :Chapter 33
02:44:27.664 : :Chapter 34
02:47:18.834 : :Chapter 35
02:53:10.227 : :Chapter 36
02:58:12.155 : :Chapter 37
03:02:34.165 : :Chapter 38
03:05:31.843 : :Chapter 39
03:15:51.838 : :Chapter 40
03:21:18.164 : :Chapter 41
03:24:47.915 : :Chapter 42
03:27:02.508 : :Chapter 43
03:33:24.515 : :Chapter 44
03:38:38.495 : :Chapter 45
03:42:06.161 : :Chapter 46
03:48:15.488 : :Chapter 47
03:52:28.324 : :Chapter 48
03:56:08.294 : :Chapter 49
03:58:33.022 : :Chapter 50
04:02:18.997 : :Chapter 51
04:06:06.391 : :Chapter 52
04:09:07.530 : :Chapter 53

Интересные факты

Создание фильма сопровождалось удивительными перипетиями. Изначально бюджет фильма планировался в пределах 2 млн долларов, но в итоге превысил 40. Фильм стал одним из самых дорогостоящих в истории кинематографа ($40 млн это примерно $300 млн в ценах 2007 года). Студия XX Century Fox едва не стала банкротом, так как фильм фактически провалился в прокате. Да и сами съёмки с трудом удалось закончить потому что кинокомпания несколько раз меняла режиссёров и продюсеров затянувшегося проекта. В итоге 6 часовую эпическую ленту при монтаже обрезали до 4 часов.
Элизабет Тейлор тяжело заболела во время съёмок, ей делали трахеотомию и производство картины приостановилось на 8 месяцев. Другой проблемой стал бурный роман между Ричардом Бартоном и Элизабет Тейлор. В итоге они оба покинули своих бывших супругов, женившись по окончании работы над фильмом.
Полный режиссёрский вариант фильма имеет хронометраж 320 минут.
Элизабет Тэйлор, стала главной и единственной претенденткой на роль. Актриса не хотела изначально участвовать в фильме, но продюсеры видели Клеопатру только в Тэйлор, ведь, справедливости ради, о красоте и буйном нраве актрисы ходило не меньше легенд, чем о египетской царице. Сама Элизабет была непреклонна и пошутила, что только за миллион долларов согласится: студия сделала свое предложение в миллион, и Тэйлор не устояла.
Столь сложный фильм со множеством переплетений сюжетных линий, как ни странно, снимался без единого сценария. Многие сцены были в значительной степени экспромтами актёров.
Начинали снимать фильм в окрестностях Лондона, затем продолжили в Риме и заканчивали опять в Лондоне. Этот фильм был зачат в спешке, снимался в истерике и был закончен в слепой панике,— написал в мемуарах Джозеф Манкевич.

Скриншоты

Other forum [Profile] [PM]
Display posts from previous:    
Reply to topic

The time now is: Today 02:18

All times are GMT + 3 Hours



You cannot post new topics in this forum
You cannot reply to topics in this forum
You cannot edit your posts in this forum
You cannot delete your posts in this forum
You cannot vote in polls in this forum
You cannot attach files in this forum
You cannot download files in this forum