Today is a free download without charge Download

Джанго освобожденный / Django Unchained (Квентин Тарантино / Quentin Tarantino) [2012, США, драма, вестерн, комедия, приключения, BDRip 1080p]

Reply to topic
 
Author
Message

Omen ®

Longevity: 8 years 5 months

Posts: 181087

Торрент-статистика

Post 01-May-2013 14:03

[Quote]

-Джанго освобожденный / Django Unchained-Страна: США
Студия: Weinstein Company, The, Columbia Pictures, Brown 26 Productions
Жанр: драма, вестерн, комедия, приключения
Год выпуска: 2012
Продолжительность: 02:45:22-Перевод: Профессиональный (дублированный)
Перевод: Авторский (одноголосый закадровый) Юрий Живов
Перевод : Авторский (одноголосый закадровый) Юрий Сербин
Перевод : Одноголосый закадровый Doctor Joker
Cубтитры: русские (форскированные, BD CEE, romero007, lord666, А.Кузнецов, DelPapa, Notabenoid, gorsky & Dzinzilya), английские (полные, SDH, SDH Colored)
Оригинальная аудиодорожка: английский-Режиссер: Квентин Тарантино / Quentin Tarantino
В ролях: Джейми Фокс (Django), Кристоф Вальц (Dr. King Schultz), Леонардо ДиКаприо (Calvin Candie), Керри Вашингтон (Broomhilda von Schaft), Сэмюэл Л. Джексон (Stephen), Уолтон Гоггинс (Billy Crash), Деннис Кристофер (Leonide Moguy), Джеймс Римар (Butch Pooch / Ace Speck), Дон Джонсон (Big Daddy), Франко Неро (Amerigo Vessepi), Майкл Паркс (The LeQuint Dickey Mining Co. Employee), Квентин Тарантино (The LeQuint Dickey Mining Co. Employee), Джона Хилл (Bag Head #2)-Описание: Эксцентричный охотник за головами, также известный как «Дантист», промышляет отстрелом самых опасных преступников на Диком Западе. Работенка пыльная, и без надежного помощника ему не обойтись. Но как найти такого и желательно не очень дорогого? Беглый раб по имени Джанго — прекрасная кандидатура. Правда, у нового помощника свои мотивы — кое с чем надо разобраться…-Доп. информация: дубляж подогнан без пересжатия. благодарности за дороги распишу через пару дней.-Тип релиза: BDRip 1080p - СЭМПЛ
Контейнер: MKV
Видео: H.264, 1920 x 800, 23,976 fps, 15000 kbps
Аудио: Dolby Digital Audio Russian 640 kbps 5.1 / 48 kHz
Аудио: DTS Audio Russian 5.1 / 48 kHz / 1509 kbps / 24-bit | Юрий Сербин
Аудио: DTS Audio Russian 5.1 / 48 kHz / 1509 kbps / 24-bit | Doctor Joker
Аудио: DTS Audio Russian 5.1 / 48 kHz / 1509 kbps / 24-bit | Юрий Живов
Аудио: DTS Audio English 5.1 / 48 kHz / 1509 kbps / 24-bit |

Видеоряд от Krispy

Django Unchained 2012 1080p BluRay DD5.1 x264-Krispy
Encode Info:Source.........: US 1080p AVC Blu-RaySize..............: 18.4 GBs (54% of remux)Runtime.......: 2:45:33Framerate....: 23.976 fpsResolution....: 1920 x 800Bitrate..........: CRF, 15000 kbpsAudio...........: English DD5.1 640 kbpsSubtitles.......: English (PGS)Chapters......: Yes, named


MI

Код:
General
Complete name                    : F:\  -= Фильмы =-\Джанго освобожденный (2012. Django Unchained).mkv
Format                           : Matroska
File size                        : 25.4 GiB
Duration                         : 2h 45mn
Overall bit rate                 : 22.0 Mbps
Movie name                       : Release for RuTracker
Encoded date                     : UTC 2013-05-01 07:50:42
Writing application              : mkvmerge v4.9.1 ('Ich will') сборка от Jul 11 2011 23:53:15
Writing library                  : libebml v1.2.1 + libmatroska v1.1.1
Video
ID                               : 1
Format                           : AVC
Format/Info                      : Advanced Video Codec
Format profile                   : [email protected]
Format settings, CABAC           : Yes
Format settings, ReFrames        : 5 frames
Muxing mode                      : Container [email protected]
Codec ID                         : V_MPEG4/ISO/AVC
Duration                         : 2h 45mn
Bit rate                         : 14.9 Mbps
Width                            : 1 920 pixels
Height                           : 800 pixels
Display aspect ratio             : 2.40:1
Frame rate                       : 23.976 fps
Color space                      : YUV
Chroma subsampling               : 4:2:0
Bit depth                        : 8 bits
Scan type                        : Progressive
Bits/(Pixel*Frame)               : 0.404
Stream size                      : 17.2 GiB (68%)
Title                            : Django Unchained (2012) 1080p Blu-ray DD5.1 x264-Krispy
Writing library                  : x264 core 130 r2274+704+40 57838ff tMod+MixAQ [[email protected]:2:0 X86_64]
Encoding settings                : cabac=1 / ref=5 / deblock=1:-3:-3 / analyse=0x3:0x113 / me=tesa / subme=10 / psy=1 / fade_compensate=0.00 / psy_rd=1.20:0.00 / mixed_ref=1 / me_range=24 / chroma_me=1 / trellis=2 / 8x8dct=1 / cqm=0 / deadzone=8,6 / fast_pskip=1 / chroma_qp_offset=-2 / threads=12 / lookahead_threads=2 / sliced_threads=0 / nr=0 / decimate=0 / interlaced=0 / bluray_compat=0 / constrained_intra=0 / fgo=0 / bframes=8 / b_pyramid=2 / b_adapt=2 / b_bias=0 / direct=1 / weightb=1 / open_gop=0 / weightp=2 / keyint=250 / keyint_min=23 / scenecut=40 / intra_refresh=0 / rc=crf / mbtree=0 / crf=18.0000 / qcomp=0.65 / qpmin=0 / qpmax=69 / qpstep=4 / ip_ratio=1.20 / pb_ratio=1.08 / aq=1:0.80 / aq-sensitivity=11.20 / aq-ifactor=1.00 / aq-pfactor=1.00 / aq-bfactor=1.00 / aq2=1:0.60 / aq2-sensitivity=9.00
Language                         : English
Audio #1
ID                               : 2
Format                           : AC-3
Format/Info                      : Audio Coding 3
Mode extension                   : CM (complete main)
Codec ID                         : A_AC3
Duration                         : 2h 45mn
Bit rate mode                    : Constant
Bit rate                         : 640 Kbps
Channel(s)                       : 6 channels
Channel positions                : Front: L C R, Side: L R, LFE
Sampling rate                    : 48.0 KHz
Bit depth                        : 16 bits
Stream size                      : 757 MiB (3%)
Title                            : Дубляж
Language                         : Russian
Audio #2
ID                               : 3
Format                           : DTS
Format/Info                      : Digital Theater Systems
Codec ID                         : A_DTS
Duration                         : 2h 45mn
Bit rate mode                    : Constant
Bit rate                         : 1 510 Kbps
Channel(s)                       : 6 channels
Channel positions                : Front: L C R, Side: L R, LFE
Sampling rate                    : 48.0 KHz
Bit depth                        : 24 bits
Stream size                      : 1.74 GiB (7%)
Title                            : Юрий Сербин
Language                         : Russian
Audio #3
ID                               : 4
Format                           : DTS
Format/Info                      : Digital Theater Systems
Codec ID                         : A_DTS
Duration                         : 2h 45mn
Bit rate mode                    : Constant
Bit rate                         : 1 510 Kbps
Channel(s)                       : 6 channels
Channel positions                : Front: L C R, Side: L R, LFE
Sampling rate                    : 48.0 KHz
Bit depth                        : 24 bits
Stream size                      : 1.74 GiB (7%)
Title                            : Doctor Joker
Language                         : Russian
Audio #4
ID                               : 5
Format                           : DTS
Format/Info                      : Digital Theater Systems
Codec ID                         : A_DTS
Duration                         : 2h 45mn
Bit rate mode                    : Constant
Bit rate                         : 1 510 Kbps
Channel(s)                       : 6 channels
Channel positions                : Front: L C R, Side: L R, LFE
Sampling rate                    : 48.0 KHz
Bit depth                        : 24 bits
Stream size                      : 1.74 GiB (7%)
Title                            : Юрий Живов
Language                         : Russian
Audio #5
ID                               : 6
Format                           : DTS
Format/Info                      : Digital Theater Systems
Codec ID                         : A_DTS
Duration                         : 2h 45mn
Bit rate mode                    : Constant
Bit rate                         : 1 510 Kbps
Channel(s)                       : 6 channels
Channel positions                : Front: L C R, Side: L R, LFE
Sampling rate                    : 48.0 KHz
Bit depth                        : 24 bits
Stream size                      : 1.74 GiB (7%)
Language                         : English
Text #1
ID                               : 7
Format                           : UTF-8
Codec ID                         : S_TEXT/UTF8
Codec ID/Info                    : UTF-8 Plain Text
Title                            : Forced
Language                         : Russian
Text #2
ID                               : 8
Format                           : UTF-8
Codec ID                         : S_TEXT/UTF8
Codec ID/Info                    : UTF-8 Plain Text
Title                            : BD CEE
Language                         : Russian
Text #3
ID                               : 9
Format                           : UTF-8
Codec ID                         : S_TEXT/UTF8
Codec ID/Info                    : UTF-8 Plain Text
Title                            : romero007
Language                         : Russian
Text #4
ID                               : 10
Format                           : ASS
Codec ID                         : S_TEXT/ASS
Codec ID/Info                    : Advanced Sub Station Alpha
Title                            : romero007
Language                         : Russian
Text #5
ID                               : 11
Format                           : UTF-8
Codec ID                         : S_TEXT/UTF8
Codec ID/Info                    : UTF-8 Plain Text
Title                            : lord666
Language                         : Russian
Text #6
ID                               : 12
Format                           : UTF-8
Codec ID                         : S_TEXT/UTF8
Codec ID/Info                    : UTF-8 Plain Text
Title                            : А.Кузнецов
Language                         : Russian
Text #7
ID                               : 13
Format                           : UTF-8
Codec ID                         : S_TEXT/UTF8
Codec ID/Info                    : UTF-8 Plain Text
Title                            : DelPapa
Language                         : Russian
Text #8
ID                               : 14
Format                           : UTF-8
Codec ID                         : S_TEXT/UTF8
Codec ID/Info                    : UTF-8 Plain Text
Title                            : Notabenoid
Language                         : Russian
Text #9
ID                               : 15
Format                           : UTF-8
Codec ID                         : S_TEXT/UTF8
Codec ID/Info                    : UTF-8 Plain Text
Title                            : gorsky & Dzinzilya
Language                         : Russian
Text #10
ID                               : 16
Format                           : UTF-8
Codec ID                         : S_TEXT/UTF8
Codec ID/Info                    : UTF-8 Plain Text
Language                         : English
Text #11
ID                               : 17
Format                           : UTF-8
Codec ID                         : S_TEXT/UTF8
Codec ID/Info                    : UTF-8 Plain Text
Title                            : SDH
Language                         : English
Text #12
ID                               : 18
Format                           : UTF-8
Codec ID                         : S_TEXT/UTF8
Codec ID/Info                    : UTF-8 Plain Text
Title                            : SDH Colored
Language                         : English
Menu
00:00:00.000                     : en:Django Unchained
00:03:36.466                     : en:1858 - Somewhere in Texas
00:12:47.933                     : en:Daughtrey, TX
00:18:49.419                     : en:Sheriff Bill Sharp
00:26:48.273                     : en:Tennessee
00:31:44.527                     : en:"You mean you wanna dress like that?"
00:40:27.133                     : en:It's a Raid
00:46:05.512                     : en:The Legend of Broomhilda
00:52:36.862                     : en:Smitty Bacall
00:58:12.822                     : en:Mississippi
01:02:20.319                     : en:One-Eyed Charlie
01:12:13.495                     : en:The Ride to Candieland
01:18:35.794                     : en:The Trackers
01:26:08.037                     : en:Candieland
01:34:49.642                     : en:Dr. Schultz Meets Broomhilda
01:40:52.379                     : en:"You know what I like."
01:45:34.036                     : en:Eskimo Joe
01:50:01.094                     : en:"You scarin' me."
01:55:03.980                     : en:Old Ben
02:03:54.969                     : en:"Please stop playing Beethoven."
02:08:14.103                     : en:"Broomhilda Von Shaft, consider yourself a free woman."
02:14:14.379                     : en:"Django, we got your woman."
02:17:28.990                     : en:Castration Scene
02:22:32.544                     : en:Lequint Dickey Mining Company
02:26:28.529                     : en:"He weren't no slave."
02:33:00.462                     : en:Django Says Goodbye to Dr. Schultz
02:35:41.999                     : en:"In the sweet by and by."
02:41:30.931                     : en:"They will call you the fastest gun in the south."

Скриншоты


Other forum [Profile] [PM]
Display posts from previous:    
Reply to topic

The time now is: Today 04:10

All times are GMT + 3 Hours



You cannot post new topics in this forum
You cannot reply to topics in this forum
You cannot edit your posts in this forum
You cannot delete your posts in this forum
You cannot vote in polls in this forum
You cannot attach files in this forum
You cannot download files in this forum