Today is a free download without charge Download

Alanis Morissette - Live at Montreux 2012 [2013, Rock, Blu-ray]

Reply to topic
 
Author
Message

Omen ®

Longevity: 8 years 4 months

Posts: 181087

Торрент-статистика

Post 01-May-2013 14:03

[Quote]

Alanis Morissette - Live at Montreux 2012- - Оригинальное название: Alanis Morissette - Live at Montreux 2012
Жанр: Rock, Alternative
Продолжительность: 01:38:04
Год выпуска: 2013
Выпущено: Eagle Rock Entertainment
Исполнители: Alanis Morissette (vocals, harmonica, guitar); Julian Coryell (guitar); Michael Farrell (keyboards); Jason Orme (guitar); Cedric Lemoyne (bass); Victor Indrizzo (drums)

Alanis Morissette is one of the most successful female artists and songwriters of all time and has sold in excess of 60 million albums worldwide. Her voice is instantly recognizable and she is a consummate live performer. On July 2nd, 2012, Alanis Morissette returned to Montreux as part of her Guardian Angel Tour in support of her new album Havoc And Bright Lights. It was her third appearance at the festival. The set showcased a number of tracks from the new album (at that point still to be released) alongside classic tracks from across her career. This is Alanis Morissette live at her very best.
Цитата:
-Треклист:
1 I Remain
2 Woman Down
3 All I Really Want
4 You Learn
5 Guardian
6 Flinch
7 Forgiven
8 Hands Clean
9 I Remain
10 Citizen Of The Planet
11 Ironic
12 Havoc
13 Head Over Feet
14 Versions Of Violence
15 I Remain
16 You Oughta Know
17 Numb
18 Hand In My Pocket
19 Uninvited
20 Thank U
-
-Качество: Blu-ray
Контейнер: BDMV
Видео кодек: AVC
Аудио кодек: DTS, PCM
Видео: MPEG-4 AVC 29906 kbps 1920*1080i / 29,970 fps / 16:9 / High Profile 4.1
Аудио#1: English DTS-HD MA 5.1 /
96 kHz / 7148 kbps / 24-bit (DTS Core: 6.1 / 48 kHz / 1509 kbps / 24-bit)
Аудио#2: English LPCM 2.0 /
96 kHz / 4608 kbps / 24-bit
-

BDInfo

Disc Title: ALANIS_MORISSETTE_HDGeekDisc Size: 33 031 210 207 bytesProtection: AACSBD-Java: NoBDInfo: 0.5.8
Notes:
BDINFO HOME: Cinema Squid http://www.cinemasquid.com/blu-ray/tools/bdinfo
INCLUDES FORUMS REPORT FOR: AVS Forum Blu-ray Audio and Video Specifications Thread http://www.avsforum.com/avs-vb/showthread.php?t=1155731
********************PLAYLIST: 00000.MPLS********************
Код:
Total   Video
Title                                                           Codec   Length  Movie Size      Disc Size       Bitrate Bitrate Main Audio Track                          Secondary Audio Track
-----                                                           ------  ------- --------------  --------------  ------- ------- ------------------                        ---------------------
00000.MPLS                                                      AVC     1:38:04 32 290 879 488  33 031 210 207  43,90   29,91   DTS-HD Master 5.1 7148Kbps (96kHz/24-bit) LPCM 2.0 4608Kbps (96kHz/24-bit)
Код:
DISC INFO:
Disc Title:     ALANIS_MORISSETTE_HDGeek
Disc Size:      33 031 210 207 bytes
Protection:     AACS
BD-Java:        No
BDInfo:         0.5.8
PLAYLIST REPORT:
Name:                   00000.MPLS
Length:                 1:38:04.645 (h:m:s.ms)
Size:                   32 290 879 488 bytes
Total Bitrate:          43,90 Mbps
VIDEO:
Codec                   Bitrate             Description
-----                   -------             -----------
MPEG-4 AVC Video        29906 kbps          1080i / 29,970 fps / 16:9 / High Profile 4.1
AUDIO:
Codec                           Language        Bitrate         Description
-----                           --------        -------         -----------
DTS-HD Master Audio             English         7148 kbps       5.1 / 96 kHz / 7148 kbps / 24-bit (DTS Core: 6.1 / 48 kHz / 1509 kbps / 24-bit)
LPCM Audio                      English         4608 kbps       2.0 / 96 kHz / 4608 kbps / 24-bit
FILES:
Name            Time In         Length          Size            Total Bitrate
----            -------         ------          ----            -------------
00000.M2TS      0:00:00.000     1:38:04.645     32 290 879 488  43 898
CHAPTERS:
Number          Time In         Length          Avg Video Rate  Max 1-Sec Rate  Max 1-Sec Time  Max 5-Sec Rate  Max 5-Sec Time  Max 10Sec Rate  Max 10Sec Time  Avg Frame Size  Max Frame Size  Max Frame Time
------          -------         ------          --------------  --------------  --------------  --------------  --------------  --------------  --------------  --------------  --------------  --------------
1               0:00:00.000     0:03:22.802     25 776 kbps     43 304 kbps     00:01:12.138    39 052 kbps     00:01:10.537    35 949 kbps     00:01:05.098    107 489 bytes   431 193 bytes   00:00:20.286
2               0:03:22.802     0:03:59.572     30 601 kbps     35 716 kbps     00:04:58.831    33 854 kbps     00:05:41.974    33 137 kbps     00:05:58.057    127 630 bytes   330 452 bytes   00:03:44.924
3               0:07:22.375     0:05:47.547     31 147 kbps     35 885 kbps     00:11:14.407    34 076 kbps     00:11:13.105    33 408 kbps     00:10:46.612    129 907 bytes   295 552 bytes   00:09:15.321
4               0:13:09.922     0:04:38.811     30 664 kbps     36 247 kbps     00:14:44.817    34 263 kbps     00:14:00.773    33 139 kbps     00:14:14.420    127 893 bytes   321 776 bytes   00:14:10.449
5               0:17:48.734     0:04:54.594     30 690 kbps     35 736 kbps     00:18:47.192    33 916 kbps     00:19:44.416    33 073 kbps     00:21:03.895    128 003 bytes   332 416 bytes   00:19:38.810
6               0:22:43.328     0:06:39.031     31 153 kbps     35 487 kbps     00:28:52.464    34 033 kbps     00:26:48.273    33 600 kbps     00:26:44.569    129 933 bytes   306 480 bytes   00:29:08.680
7               0:29:22.360     0:05:40.340     30 772 kbps     36 866 kbps     00:34:35.873    33 810 kbps     00:30:27.458    33 288 kbps     00:32:48.766    128 344 bytes   289 867 bytes   00:33:50.895
8               0:35:02.700     0:04:46.419     30 933 kbps     36 036 kbps     00:37:59.310    33 963 kbps     00:37:18.169    33 271 kbps     00:37:14.765    129 018 bytes   328 053 bytes   00:37:59.343
9               0:39:49.120     0:02:04.958     31 054 kbps     35 585 kbps     00:40:30.094    33 543 kbps     00:41:47.771    33 045 kbps     00:41:42.766    129 520 bytes   295 087 bytes   00:40:01.899
10              0:41:54.078     0:05:28.261     28 997 kbps     44 699 kbps     00:42:41.258    38 137 kbps     00:42:38.455    35 266 kbps     00:42:38.722    120 941 bytes   390 157 bytes   00:42:42.159
11              0:47:22.339     0:04:06.346     30 593 kbps     48 273 kbps     00:47:30.147    34 159 kbps     00:48:38.582    33 550 kbps     00:50:03.767    127 598 bytes   422 138 bytes   00:48:06.149
12              0:51:28.685     0:05:49.115     30 016 kbps     41 684 kbps     00:52:32.215    37 656 kbps     00:55:15.578    35 184 kbps     00:55:13.977    125 194 bytes   467 198 bytes   00:54:21.958
13              0:57:17.801     0:04:41.514     29 414 kbps     42 752 kbps     00:57:42.492    37 343 kbps     00:57:41.658    35 770 kbps     00:57:42.258    122 680 bytes   383 985 bytes   00:57:36.553
14              1:01:59.315     0:03:48.227     30 781 kbps     35 666 kbps     01:03:53.329    33 724 kbps     01:02:29.812    33 307 kbps     01:02:26.409    128 384 bytes   320 407 bytes   01:02:20.737
15              1:05:47.543     0:01:51.010     30 563 kbps     35 600 kbps     01:06:34.256    34 306 kbps     01:06:30.252    33 361 kbps     01:06:30.052    127 473 bytes   283 347 bytes   01:06:18.874
16              1:07:38.554     0:05:27.427     30 543 kbps     35 749 kbps     01:08:05.681    33 504 kbps     01:10:10.339    32 962 kbps     01:11:13.135    127 392 bytes   289 966 bytes   01:12:49.932
17              1:13:05.981     0:07:57.310     29 129 kbps     46 563 kbps     01:20:55.584    40 414 kbps     01:20:54.149    35 147 kbps     01:20:53.281    121 492 bytes   426 224 bytes   01:20:58.987
18              1:21:03.291     0:05:03.803     29 403 kbps     45 123 kbps     01:21:27.382    37 264 kbps     01:21:25.180    33 461 kbps     01:22:11.726    122 636 bytes   529 632 bytes   01:21:28.350
19              1:26:07.095     0:06:41.400     29 186 kbps     42 598 kbps     01:26:26.080    37 138 kbps     01:26:23.378    34 516 kbps     01:26:23.778    121 730 bytes   383 009 bytes   01:26:27.081
20              1:32:48.496     0:05:16.149     27 143 kbps     45 010 kbps     01:32:54.969    37 580 kbps     01:32:53.868    33 494 kbps     01:33:13.888    113 221 bytes   366 273 bytes   01:33:16.691
STREAM DIAGNOSTICS:
File            PID             Type            Codec           Language                Seconds                 Bitrate                 Bytes           Packets
----            ---             ----            -----           --------                --------------          --------------          -------------   -----
00000.M2TS      4113 (0x1011)   0x1B            AVC                                     5884,579                29 906                  21 998 035 684  119 657 442
00000.M2TS      4352 (0x1100)   0x80            LPCM            eng (English)           5884,579                4 615                   3 394 387 248   18 831 552
00000.M2TS      4353 (0x1101)   0x86            DTS-HD MA       eng (English)           5884,579                7 149                   5 258 275 484   29 495 502
********************PLAYLIST: 00001.MPLS********************
Код:
Total   Video
Title                                                           Codec   Length  Movie Size      Disc Size       Bitrate Bitrate Main Audio Track                          Secondary Audio Track
-----                                                           ------  ------- --------------  --------------  ------- ------- ------------------                        ---------------------
00001.MPLS                                                      AVC     0:20:37 5 198 751 744   33 031 210 207  33,62   29,79   LPCM 2.0 2304Kbps (48kHz/24-bit)
Код:
DISC INFO:
Disc Title:     ALANIS_MORISSETTE_HDGeek
Disc Size:      33 031 210 207 bytes
Protection:     AACS
BD-Java:        No
BDInfo:         0.5.8
PLAYLIST REPORT:
Name:                   00001.MPLS
Length:                 0:20:37.002 (h:m:s.ms)
Size:                   5 198 751 744 bytes
Total Bitrate:          33,62 Mbps
VIDEO:
Codec                   Bitrate             Description
-----                   -------             -----------
MPEG-4 AVC Video        29791 kbps          1080i / 29,970 fps / 16:9 / High Profile 4.1
AUDIO:
Codec                           Language        Bitrate         Description
-----                           --------        -------         -----------
LPCM Audio                      English         2304 kbps       2.0 / 48 kHz / 2304 kbps / 24-bit
FILES:
Name            Time In         Length          Size            Total Bitrate
----            -------         ------          ----            -------------
00002.M2TS      0:00:00.000     0:01:17.343     325 330 944     33 650
00003.M2TS      0:01:17.343     0:01:17.310     324 894 720     33 620
00003.M2TS      0:02:34.654     0:01:17.310     324 894 720     33 620
00003.M2TS      0:03:51.965     0:01:17.310     324 894 720     33 620
00003.M2TS      0:05:09.275     0:01:17.310     324 894 720     33 620
00003.M2TS      0:06:26.586     0:01:17.310     324 894 720     33 620
00003.M2TS      0:07:43.896     0:01:17.310     324 894 720     33 620
00003.M2TS      0:09:01.207     0:01:17.310     324 894 720     33 620
00003.M2TS      0:10:18.517     0:01:17.310     324 894 720     33 620
00003.M2TS      0:11:35.828     0:01:17.310     324 894 720     33 620
00003.M2TS      0:12:53.138     0:01:17.310     324 894 720     33 620
00003.M2TS      0:14:10.449     0:01:17.310     324 894 720     33 620
00003.M2TS      0:15:27.760     0:01:17.310     324 894 720     33 620
00003.M2TS      0:16:45.070     0:01:17.310     324 894 720     33 620
00003.M2TS      0:18:02.381     0:01:17.310     324 894 720     33 620
00003.M2TS      0:19:19.691     0:01:17.310     324 894 720     33 620
CHAPTERS:
Number          Time In         Length          Avg Video Rate  Max 1-Sec Rate  Max 1-Sec Time  Max 5-Sec Rate  Max 5-Sec Time  Max 10Sec Rate  Max 10Sec Time  Avg Frame Size  Max Frame Size  Max Frame Time
------          -------         ------          --------------  --------------  --------------  --------------  --------------  --------------  --------------  --------------  --------------  --------------
1               0:00:00.000     0:20:37.002     29 791 kbps     43 993 kbps     00:00:15.448    35 801 kbps     00:00:11.444    32 818 kbps     00:00:06.306    124 252 bytes   429 721 bytes   00:00:12.679
STREAM DIAGNOSTICS:
File            PID             Type            Codec           Language                Seconds                 Bitrate                 Bytes           Packets
----            ---             ----            -----           --------                --------------          --------------          -------------   -----
00002.M2TS      4113 (0x1011)   0x1B            AVC                                     77,277                  29 843                  288 271 239     1 568 064
00002.M2TS      4352 (0x1100)   0x80            LPCM            eng (English)           77,277                  2 312                   22 337 236      123 752
00003.M2TS      4113 (0x1011)   0x1B            AVC                                     77,244                  29 815                  287 874 320     1 565 891
00003.M2TS      4352 (0x1100)   0x80            LPCM            eng (English)           77,244                  2 313                   22 328 572      123 704

Скриншоты





Thanks to Cisco at HDGeek-
Other forum [Profile] [PM]
Display posts from previous:    
Reply to topic

The time now is: Today 06:39

All times are GMT + 3 Hours



You cannot post new topics in this forum
You cannot reply to topics in this forum
You cannot edit your posts in this forum
You cannot delete your posts in this forum
You cannot vote in polls in this forum
You cannot attach files in this forum
You cannot download files in this forum