Today is a free download without charge Download

Обычный человек / A Common Man (Чандрам Рутнам) [2012.., США, Боевик, триллер, BDRemux 1080p]

Reply to topic
 
Author
Message

Meshanik ®

Gender:

Longevity: 8 years 10 months

Posts: 3866

Location: Los Angeles

Торрент-статистика

Post 01-May-2013 10:24

[Quote]

Обычный человек / A Common Man- Русское название: Обычный человек
Оригинальное название: A Common Man
Год выпуска: 2012
Выпущено: США, Шри-Ланка
Жанр: боевик, триллер
Продолжительность: 01:25:48
Перевод: Одноголосый закадровый [den904]
Субтитры: нет-Режиссер: Чандрам Рутнам
Сценарий: Нирадж Пандеу, Чандрам Рутнам
Продюсер: Б.С. Рада Кришнан, Manohan Nanayakkara, Чандрам Рутнам, ...
Оператор: Chandana Jayasinghe
Композитор: Олстон Кох
В ролях: Бен Кингсли, Бен Кросс, Нумая Сиривардена, Патрик Рутнам, Фредерик-Джеймс Лобато, Mohamed Adamaly, Джером Де Силва, Ashan Dias, Wilson Gunarathne, Сандо Харрис-Описание фильма:
Террорист устанавливает несколько взрывных устройств в разных районах города Коломбо, Шри-Ланка и угрожает взорвать их, если заключенные не будут выпущены на свободу.-

Рейтинг PG-13 - Детям до 13 лет просмотр не желателен-Качество видео: BDRemux
Контейнер: MKV
Видеокодек: MPEG-4 AVC/H.264
Аудиокодек: AC-3, DTS-HD MA
Видео: 1920x1080, ~26658 kbps
Аудио1: AC-3 5.1, ~448 kbps - русский одноголосый закадровый [den904]
Аудио2: DTS-HD MA 5.1, ~3827 kbps - English
-

MediaInfo

Код:
Формат                                   : Matroska
Версия формата                           : Version 4 / Version 2
Размер файла                             : 18,5 Гбайт
Продолжительность                        : 1 ч. 25 м.
Режим общего битрейта                    : Переменный
Общий поток                              : 30,9 Мбит/сек
Название фильма                          : Обычный человек (2012) [1080p] BDRemux (by sergey2925 for /*spam*/)
Дата кодирования                         : UTC 2013-04-30 22:14:55
Программа кодирования                    : mkvmerge v6.1.0 ('Old Devil') built on Mar  2 2013 14:32:37
Библиотека кодирования                   : libebml v1.3.0 + libmatroska v1.4.0
Видео
Идентификатор                            : 1
Формат                                   : AVC
Формат/Информация                        : Advanced Video Codec
Профиль формата                          : [url=mailto:[email protected]][email protected][/url]
Параметр CABAC формата                   : Да
Параметр ReFrames формата                : 4 кадра
Параметр GOP формата                     : M=3, N=18
Идентификатор кодека                     : V_MPEG4/ISO/AVC
Продолжительность                        : 1 ч. 25 м.
Вид битрейта                             : Переменный
Битрейт                                  : 28,3 Мбит/сек
Максимальный битрейт                     : 37,0 Мбит/сек
Ширина                                   : 1920 пикселей
Высота                                   : 1080 пикселей
Соотношение сторон                       : 16:9
Частота кадров                           : 23,976 кадра/сек
Стандарт вещания                         : NTSC
Цветовое пространство                    : YUV
Субдискретизация насыщенности            : 4:2:0
Битовая глубина                          : 8 бит
Тип развёртки                            : Прогрессивная
Бит/(Пиксели*Кадры)                      : 0.569
Размер потока                            : 16,9 Гбайт (92%)
Заголовок                                : Обычный человек (2012) [1080p] BDRemux (by sergey2925 for /*spam*/)
Язык                                     : English
Default                                  : Да
Forced                                   : Нет
Основные цвета                           : BT.709-5, BT.1361, IEC 61966-2-4, SMPTE RP177
Характеристики трансфера                 : BT.709-5, BT.1361
Коэффициенты матрицы                     : BT.709-5, BT.1361, IEC 61966-2-4 709, SMPTE RP177
Аудио #1
Идентификатор                            : 2
Формат                                   : AC-3
Формат/Информация                        : Audio Coding 3
Расширение режима                        : CM (complete main)
Идентификатор кодека                     : A_AC3
Продолжительность                        : 1 ч. 25 м.
Вид битрейта                             : Постоянный
Битрейт                                  : 448 Кбит/сек
Каналы                                   : 6 каналов
Расположение каналов                     : Front: L C R, Side: L R, LFE
Частота                                  : 48,0 КГц
Битовая глубина                          : 16 бит
Метод сжатия                             : С потерями
Размер потока                            : 275 Мбайт (1%)
Заголовок                                : RUS.VO.AC-3 5.1 ~448 kbps [den904]
Язык                                     : Russian
Default                                  : Да
Forced                                   : Нет
Аудио #2
Идентификатор                            : 3
Формат                                   : DTS
Формат/Информация                        : Digital Theater Systems
Профиль формата                          : MA / Core
Идентификатор кодека                     : A_DTS
Продолжительность                        : 1 ч. 25 м.
Вид битрейта                             : Переменный
Битрейт                                  : 1561 Кбит/сек / 1510 Кбит/сек
Каналы                                   : 6 каналов
Расположение каналов                     : Front: L C R, Side: L R, LFE
Частота                                  : 48,0 КГц
Битовая глубина                          : 24 бит
Метод сжатия                             : Без потерь / Lossy
Заголовок                                : ENG.ORIG.DTS-HD MA 5.1 ~3827 kbps
Язык                                     : English
Default                                  : Нет
Forced                                   : Нет

BV

- Скриншоты:
       
       
-
Other forum [Profile] [PM]
Display posts from previous:    
Reply to topic

The time now is: Today 11:07

All times are GMT + 3 Hours



You cannot post new topics in this forum
You cannot reply to topics in this forum
You cannot edit your posts in this forum
You cannot delete your posts in this forum
You cannot vote in polls in this forum
You cannot attach files in this forum
You cannot download files in this forum