Today is a free download without charge Download

Discovery. Встречи на краю света / Discovery. Encounters at the End of the World (2007)[H.264/1080p] BDRip

Reply to topic
 
Author
Message

UndegraundMen ®

Longevity: 7 years 7 months

Posts: 25145

Торрент-статистика

Post 01-May-2013 00:04

[Quote]

Discovery. Встречи на краю света / Discovery. Encounters at the End of the World (2007) BDRip [H.264/1080p]- Русское название: Discovery. Встречи на краю света
Оригинальное название: Discovery. Encounters at the End of the World
Режиссер / Телекомпания: Вернер Херцог / Discovery
Год выпуска: 2007
Жанр: Документальный
Описание:
Вооруженный коллекцией многих причудливых вопросов и обещанием не снимать «другое кино о пингвинах», режиссер Вернер Херцог едет в Антарктиду, с намерением снять фильм о том, что он найдёт подо льдом. Он начинает свою историю на военном самолете, который доставит его на станцию McMurdo, американскому Антарктическому исследовательскому центру. Станция расположена на южной стороне Острова Росса, на берегу McMurdo Sound, и может поддерживать жизнь и работу приблизительно 1200 человек. Вернер Херцог берет интервью у философов, банкиров, и даже других кинопроизводителей, у всех тех, кто сбежал от своей обычной городской жизни для того, чтобы жить и работать на McMurdo. Он также берёт интервью у некоторых учёных и преподавателей школы выживания. Даже находясь вместе со всеми этими интересными людьми, живущими и работающими на McMurdo, Вернер Херцог расстроен тем, насколько эта жизнь так похожа на городскую (он ненавидит присутствие на станции курсов йоги и торговых автоматов), и ещё он очень разочарован хорошей погодой…

Продолжительность: 01:40:44
Перевод: Одноголосый закадровый, профессиональный
Видеокодек: MPEG-4 AVC/H.264
Битрейт видео: ~12,0 Мбит/сек
Размер кадра: 1920 х 1080, 16:9
Качество видео: BDRip
Аудиокодек: AC3
Аудио #1: Русский 2.0 / 48 kHz / 192 kb/s / 16-bit
Аудио #2: Английский 5.1 / 48 kHz / 448 kb/s / 16-bit

Mediainfo

никальный идентификатор : 237507675520238550562826551791438510674 (0xB2AE507E867CA902B61CCDE3106FBA52)
Полное имя : D:\NNM_CLUB\Encounters At The End Of The World.mkv
Формат : Matroska
Версия формата : Version 4 / Version 2
Размер файла : 8,90 Гбайт
Продолжительность : 1 ч. 40 м.
Общий поток : 12,6 Мбит/сек
Дата кодирования : UTC 2010-02-22 21:41:31
Программа кодирования : mkvmerge v5.9.0 ('On The Loose') built on Dec 9 2012 15:37:01
Библиотека кодирования : libebml v1.3.0 + libmatroska v1.4.0
Видео
Идентификатор : 1
Формат : AVC
Формат/Информация : Advanced Video Codec
Профиль формата : [url=mailto:[email protected]][email protected][/url]
Параметр CABAC формата : Да
Параметр ReFrames формата : 4 кадра
Идентификатор кодека : V_MPEG4/ISO/AVC
Продолжительность : 1 ч. 40 м.
Битрейт : 12,0 Мбит/сек
Ширина : 1920 пикселей
Высота : 1080 пикселей
Соотношение сторон : 16:9
Частота кадров : 29,970 кадров/сек
Цветовое пространство : YUV
Субдискретизация насыщенности : 4:2:0
Битовая глубина : 8 бит
Тип развёртки : Прогрессивная
Бит/(Пиксели*Кадры) : 0.193
Размер потока : 8,27 Гбайт (93%)
Заголовок : Encounters At The End Of The World (/*spam*/)
Библиотека кодирования : x264 core 130 r2273 b3065e6
Настройки программы : cabac=1 / ref=4 / deblock=1:-3:-3 / analyse=0x3:0x133 / me=tesa / subme=11 / psy=1 / psy_rd=1.00:0.10 / mixed_ref=1 / me_range=32 / chroma_me=1 / trellis=2 / 8x8dct=1 / cqm=0 / deadzone=21,11 / fast_pskip=0 / chroma_qp_offset=-3 / threads=6 / lookahead_threads=1 / sliced_threads=0 / nr=0 / decimate=0 / interlaced=0 / bluray_compat=0 / constrained_intra=0 / bframes=4 / b_pyramid=2 / b_adapt=2 / b_bias=0 / direct=3 / weightb=1 / open_gop=0 / weightp=2 / keyint=250 / keyint_min=25 / scenecut=40 / intra_refresh=0 / rc_lookahead=60 / rc=2pass / mbtree=1 / bitrate=12000 / ratetol=1.0 / qcomp=0.60 / qpmin=0 / qpmax=69 / qpstep=4 / cplxblur=20.0 / qblur=0.5 / ip_ratio=1.40 / aq=1:1.00
Язык : English
Default : Да
Forced : Нет
Аудио #1
Идентификатор : 2
Формат : AC-3
Формат/Информация : Audio Coding 3
Расширение режима : CM (complete main)
Параметр Endianness формата : Big
Идентификатор кодека : A_AC3
Продолжительность : 1 ч. 40 м.
Вид битрейта : Постоянный
Битрейт : 192 Кбит/сек
Каналы : 2 канала
Расположение каналов : Front: L R
Частота : 48,0 КГц
Битовая глубина : 16 бит
Метод сжатия : С потерями
Размер потока : 138 Мбайт (2%)
Язык : Russian
Default : Да
Forced : Нет
Аудио #2
Идентификатор : 3
Формат : AC-3
Формат/Информация : Audio Coding 3
Расширение режима : CM (complete main)
Параметр Endianness формата : Big
Идентификатор кодека : A_AC3
Продолжительность : 1 ч. 40 м.
Вид битрейта : Постоянный
Битрейт : 448 Кбит/сек
Каналы : 6 каналов
Расположение каналов : Front: L C R, Side: L R, LFE
Частота : 48,0 КГц
Битовая глубина : 16 бит
Метод сжатия : С потерями
Размер потока : 323 Мбайт (4%)
Язык : English
Default : Нет
Forced : Нет
Скриншоты:        
       
Other forum [Profile] [PM]
Display posts from previous:    
Reply to topic

The time now is: Today 13:28

All times are GMT + 3 Hours



You cannot post new topics in this forum
You cannot reply to topics in this forum
You cannot edit your posts in this forum
You cannot delete your posts in this forum
You cannot vote in polls in this forum
You cannot attach files in this forum
You cannot download files in this forum