Today is a free download without charge Download

Орки / Orcs! (Эндрю Блэк) [2011.., США, Ужасы, Фэнтези, Комедия, 720p, BDRip]

Reply to topic
 
Author
Message

Meshanik ®

Gender:

Longevity: 8 years 10 months

Posts: 3866

Location: Los Angeles

Торрент-статистика

Post 30-Apr-2013 21:23

[Quote]

Орки / Orcs
«They Will Eat Your Face Off.»
-
Русское название: Орки
Оригинальное название: Orcs!
Год выпуска: 2011
Жанр: Ужасы, Фэнтези, Комедия
Продолжительность: 01:19:54
Перевод: Профессиональный многоголосый закадровый |Лицензия|
Субтитры: Русские, Английские-Режиссер: Эндрю Блэк, Джеймс МакФерсон
Сценарий: Энн К. Блэк, Джейсон Фэллер, Кинан Гриффин, ...
Продюсер: Джейсон Фэллер, Кинан Гриффин, Бен Карсон, ...
Оператор: Кэммон Рэндл
Композитор: Пану Аалти, Бен Карсон
В ролях: Майкл Тодд Беренс, Майкл Беренс, Остин М. Крэйг, Стэн Фергюсон, Ренни Ричмонд, Шон Хэммонд, Барта Хейнер, Адам Джонсон, Брэд Джонсон, Джефф Киркэм-Описание фильма:
Тысячи лет назад орки, находящиеся на грани вымирания после войн с людьми, скрылись в самых глубоких пещерах. Человечество очень быстро забыло об их существовании, оставив упоминание об орках только в старинных сказаниях. Но они выжили и все эти века, армия древних воителей готовилась к кровопролитной войне, в которой погибнут все люди, чтобы новая раса воцарилась на планете! И вот пришел день, когда орда орков вырвалась на свободу…- -Бюджет: $3 000 000
Премьера (мир): 6 июня 2011, ...
Релиз на DVD: 3 апреля 2012, «Lizard Cinema Trade», ...-Качество видео: BDRip [720p]
Видеокодек: MPEG-4 AVC/H.264
Видео: 1280x720, 23.976 fps, 4365 Kb/s
Аудио#1: Russian: AC3, 3/2, 384 kb/s |Многоголосый закадровый|
Аудио#2: English: DTS, 3/2, ~1510 kb/s
-

MediaInfo...

Формат : Matroska
Версия формата : Version 2
Размер файла : 3,49 Гбайт
Продолжительность : 1 ч. 19 м.
Общий поток : 6257 Кбит/сек
Дата кодирования : UTC 2012-04-10 13:59:31
Программа кодирования : mkvmerge v5.4.0 ('Piper') built on Mar 10 2012 13:34:39
Библиотека кодирования : libebml v1.2.3 + libmatroska v1.3.0
Видео
Идентификатор : 1
Формат : AVC
Формат/Информация : Advanced Video Codec
Профиль формата : [email protected]
Параметр CABAC формата : Да
Параметр ReFrames формата : 5 кадров
Идентификатор кодека : V_MPEG4/ISO/AVC
Продолжительность : 1 ч. 19 м.
Битрейт : 4365 Кбит/сек
Ширина : 1280 пикселей
Высота : 720 пикселей
Соотношение сторон : 16:9
Частота кадров : 23,976 кадра/сек
Цветовое пространство : YUV
Субдискретизация насыщенности : 4:2:0
Битовая глубина : 8 бит
Тип развёртки : Прогрессивная
Бит/(Пиксели*Кадры) : 0.198
Размер потока : 2,37 Гбайт (68%)
Библиотека кодирования : x264 core 115 r1995 c1e60b9
Настройки программы : cabac=1 / ref=5 / deblock=1:0:0 / analyse=0x3:0x133 / me=umh / subme=7 / psy=1 / psy_rd=1.00:0.00 / mixed_ref=1 / me_range=16 / chroma_me=1 / trellis=1 / 8x8dct=1 / cqm=0 / deadzone=21,11 / fast_pskip=0 / chroma_qp_offset=-2 / threads=12 / sliced_threads=0 / nr=0 / decimate=1 / interlaced=0 / bluray_compat=0 / constrained_intra=0 / bframes=3 / b_pyramid=2 / b_adapt=1 / b_bias=0 / direct=1 / weightb=1 / open_gop=0 / weightp=2 / keyint=250 / keyint_min=23 / scenecut=40 / intra_refresh=0 / rc_lookahead=40 / rc=2pass / mbtree=1 / bitrate=4365 / ratetol=1.0 / qcomp=0.60 / qpmin=0 / qpmax=69 / qpstep=4 / cplxblur=20.0 / qblur=0.5 / ip_ratio=1.40 / aq=1:1.00
Язык : English
Default : Да
Forced : Да
Аудио #1
Идентификатор : 2
Формат : AC-3
Формат/Информация : Audio Coding 3
Расширение режима : CM (complete main)
Идентификатор кодека : A_AC3
Продолжительность : 1 ч. 19 м.
Вид битрейта : Постоянный
Битрейт : 384 Кбит/сек
Каналы : 6 каналов
Расположение каналов : Front: L C R, Side: L R, LFE
Частота : 48,0 КГц
Битовая глубина : 16 бит
Метод сжатия : С потерями
Размер потока : 219 Мбайт (6%)
Заголовок : Многоголосый закадровый
Язык : Russian
Default : Да
Forced : Да
Аудио #2
Идентификатор : 3
Формат : DTS
Формат/Информация : Digital Theater Systems
Идентификатор кодека : A_DTS
Продолжительность : 1 ч. 19 м.
Вид битрейта : Постоянный
Битрейт : 1510 Кбит/сек
Каналы : 6 каналов
Расположение каналов : Front: L C R, Side: L R, LFE
Частота : 48,0 КГц
Битовая глубина : 24 бит
Метод сжатия : С потерями
Задержка видео : 11 мс.
Размер потока : 863 Мбайт (24%)
Язык : English
Default : Нет
Forced : Нет
Текст #1
Идентификатор : 4
Формат : UTF-8
Идентификатор кодека : S_TEXT/UTF8
Идентификатор кодека/Информация : UTF-8 Plain Text
Язык : Russian
Default : Нет
Forced : Нет
Текст #2
Идентификатор : 5
Формат : UTF-8
Идентификатор кодека : S_TEXT/UTF8
Идентификатор кодека/Информация : UTF-8 Plain Text
Язык : English
Default : Нет
Forced : Нет
-Скриншоты:-          -
Other forum [Profile] [PM]
Display posts from previous:    
Reply to topic

The time now is: Today 22:44

All times are GMT + 3 Hours



You cannot post new topics in this forum
You cannot reply to topics in this forum
You cannot edit your posts in this forum
You cannot delete your posts in this forum
You cannot vote in polls in this forum
You cannot attach files in this forum
You cannot download files in this forum