Today is a free download without charge Download

Любовь из пробирки (Илья Хотиненко, Сергей Гиргель) [2013, Россия, Мелодрама, HDTV 1080i]

Reply to topic
 
Author
Message

Omen ®

Longevity: 8 years 10 months

Posts: 181086

Торрент-статистика

Post 30-Apr-2013 09:01

[Quote]

Любовь из пробирки
Страна: Россия
Студия: Россия, "Медиапрофсоюз"
Жанр: Мелодрама
Год выпуска: 2013
Продолжительность: 01:40:00
Перевод: Не требуется
Cубтитры: нет
Режиссер: Илья Хотиненко, Сергей Гиргель
В ролях: Яна Шивкова, Юрий Батурин, Сергей Комаров (II), Антон Страшко, Ольга Бурлакова, Татьяна Бовкалова, Андрей Карако и другие.
Описание: Нине слегка за 30. Так и не встретив настоящую любовь, она решает «родить для себя». Только найти нормального кандидата на роль «папы» оказывается не так-то просто. На помощь сестре приходит находчивая Галина, которая работает в центре репродуктивной медицины. Она отбирает самый лучший «генофонд» для своего будущего племянника. Донором становится шикарный и… ничего не подозревающий клиент центра - бизнесмен Валерий Уваров. ЭКО проходит удачно, и на свет появляется Стёпка... Спустя шесть лет жизнь героини входит в нормальное русло: у неё подрастает сын, находится высокооплачиваемая работа, но… У судьбы на Нину явно свои планы. Неожиданно она узнает, что ее шеф, сухарь и тиран, оказывается, и есть отец Стёпки...
Сэмпл: http://multi-up.com/860289
Тип релиза: HDTV 1080i
Контейнер: TS
Доп. информация: Релиз -

Рип чистый. Без посторонних надписей. Выкладывается как есть.
Видео кодек: AVC
Аудио кодек: MP2
Видео: 1920x1080 (16:9) 25.000 fps 7 853 Kbps, 0.151 bit/pixel
Аудио: MPEG Audio 48000Hz stereo 192 Кбит/сек

Скриншоты


Скриншот с названием фильма

MI

GeneralID : 1 (0x1)Complete name : J:\ВЫКЛАДКА\HDTV\Фильмы\Любовь из пробирки (2013, Мелодрама, HDTV) (MYDIMKA).tsFormat : MPEG-TSFile size : 5.90 GiBDuration : 1h 40mnOverall bit rate mode : VariableOverall bit rate : 8 433 Kbps
VideoID : 2911 (0xB5F)Menu ID : 1 (0x1)Format : AVCFormat/Info : Advanced Video CodecFormat profile : [email protected] settings, CABAC : YesFormat settings, ReFrames : 3 framesCodec ID : 27Duration : 1h 40mnBit rate : 7 822 KbpsWidth : 1 920 pixelsHeight : 1 080 pixelsDisplay aspect ratio : 16:9Frame rate : 25.000 fpsColor space : YUVChroma subsampling : 4:2:0Bit depth : 8 bitsScan type : MBAFFBits/(Pixel*Frame) : 0.151Stream size : 5.47 GiB (93%)
AudioID : 2912 (0xB60)Menu ID : 1 (0x1)Format : MPEG AudioFormat version : Version 1Format profile : Layer 2Codec ID : 3Duration : 1h 40mnBit rate mode : ConstantBit rate : 192 KbpsChannel(s) : 2 channelsSampling rate : 48.0 KHzCompression mode : LossyStream size : 137 MiB (2%)Language : Russian
Other forum [Profile] [PM]
Display posts from previous:    
Reply to topic

The time now is: Today 22:51

All times are GMT + 3 Hours



You cannot post new topics in this forum
You cannot reply to topics in this forum
You cannot edit your posts in this forum
You cannot delete your posts in this forum
You cannot vote in polls in this forum
You cannot attach files in this forum
You cannot download files in this forum