Today is a free download without charge Download

Я знаю, что вы сделали прошлым летом / I Know What You Did Last Summer (Джим Гиллеспи / Jim Gillespie) [1997, США, Триллер, BDRip 1080p] MVO + AVO + Original + Subs (Rus, Eng)

Reply to topic
 
Author
Message

Omen ®

Longevity: 8 years 5 months

Posts: 181087

Торрент-статистика

Post 30-Apr-2013 09:01

[Quote]

--Я знаю, что вы сделали прошлым летом / I Know What You Did Last Summer«If you're going to bury the truth, make sure it stays buried.»- -Год выпуска: 1997
Страна: США
Жанр: триллер
Продолжительность: 01:40:53
Перевод №1: Профессиональный (многоголосый закадровый)
Перевод №2: Авторский (одноголосый закадровый, А.Гаврилов)
Субтитры: Русские, Английские-Режиссер: Джим Гиллеспи / Jim Gillespie
Сценарий: Кевин Уильямсон / Kevin Williamson, Лоис Дункан / Lois Duncan
Продюсер: Уильям С. Бисли / William S. Beasley, Стоукли Чаффин / Stokely Chaffin, Эрик Фейг / Erik Feig, Нил Х. Мориц / Neal H. Moritz
Оператор: Дэнис Кроссан / Denis Crossan
Композитор: Джон Дебни / John Debney, Дэн Диннинг / Dean Dinning, Hooverphonic, Toad the Wet Sprocket
В ролях: Дженнифер Лав Хьюитт / Jennifer Love Hewitt (Julie James), Сара Мишель Геллар / Sarah Michelle Gellar (Helen Shivers), Райан Филипп / Ryan Phillippe (Barry William Cox), Фредди Принц мл. / Freddie Prinze Jr. (Ray Bronson), Мьюз Уотсон / Muse Watson (Benjamin Willis), Бриджит Уилсон / Bridgette Wilson (Elsa Shivers), Энн Хеч / Anne Heche (Melissa «Missy» Egan), Джонни Галэки / Johnny Galecki (Max Neurick), Стюарт Грир / Stuart Greer (Officer David Caporizo), Дж. Дон Фергюсон / J. Don Ferguson (Emcee), Дебора Хобарт / Deborah Hobarts (Mrs. James), Мэри МакМиллан / Mary McMillan (Mrs. Cox)-Описание: Двое парней со своими девушками поехали после окончания школы на пляж повеселиться. Возвращаясь домой, они сбили человека и дабы избежать неприятностей с полицией, сбросили тело в воду... Через год одна из героинь получает записку: "Я знаю, что вы сделали прошлым летом"...- -Качество: Blu-ray Rip 1080p
Формат: MKV
Видео: MPEG-4 AVC (H264), High Profile 4.1, 1920x800, 23.976 fps, ~14800 kbps avg, bit/(pixel*frame) 0.404
Аудио №1: Russian: 48 kHz, AC3, 3/2 (L,C,R,l,r) + LFE ch, ~640.00 kbps avg //многоголосый
Аудио №2: Russian: 48 kHz, AC3, 3/2 (L,C,R,l,r) + LFE ch, ~384.00 kbps avg //одноголосый закадровый (А.Гаврилов)
Аудио №3: English: 48 kHz, DTS, 3/2 (L,C,R,l,r) + LFE ch, ~1510.00 kbps avg //original
Аудио №4: English: 48 kHz, AC3, 2.0 (L,R) ch, ~192.00 kbps avg //original (commentary by Jim Gillespie)
Субтитры: Russian, English, English SDH (Softsub SRT)
Навигация по главам: есть-

Скриншоты

Blu-Ray vs Rip





MediaInfo

L:\I Know What You Did Last Summer [Я знаю, что вы сделали прошлым летом] (1997) 1920x800 BDRip RusEngSubsChpt.mkv
General
Unique ID : 187505316858491206248035302217320320484 (0x8D1035DFDA144D8396E88AE7A3C94DE4)
Complete name : L:\I Know What You Did Last Summer [Я знаю, что вы сделали прошлым летом] (1997) 1920x800 BDRip RusEngSubsChpt.mkv
Format : Matroska
Format version : Version 4 / Version 2
File size : 12.6 GiB
Duration : 1h 40mn
Overall bit rate : 17.9 Mbps
Movie name : -=RbM=-
Encoded date : UTC 2013-04-22 14:40:04
Writing application : mkvmerge v6.1.0 ('Old Devil') built on Mar 2 2013 14:32:37
Writing library : libebml v1.3.0 + libmatroska v1.4.0
Video #1
ID : 1
Format : AVC
Format/Info : Advanced Video Codec
Format profile : [email protected]
Format settings, CABAC : Yes
Format settings, ReFrames : 5 frames
Codec ID : V_MPEG4/ISO/AVC
Duration : 1h 40mn
Bit rate : 14.8 Mbps
Width : 1 920 pixels
Height : 800 pixels
Display aspect ratio : 2.40:1
Frame rate mode : Constant
Frame rate : 23.976 fps
Color space : YUV
Chroma subsampling : 4:2:0
Bit depth : 8 bits
Scan type : Progressive
Bits/(Pixel*Frame) : 0.403
Stream size : 10.5 GiB (83%)
Title : 59% of the original
Writing library : x264 core 130 r2274+704+40 57838ff tMod+MixAQ [[email protected] X86_64]
Encoding settings : cabac=1 / ref=5 / deblock=1:-2:-2 / analyse=0x3:0x133 / me=umh / subme=11 / psy=1 / fade_compensate=0.00 / psy_rd=1.10:0.15 / mixed_ref=1 / me_range=32 / chroma_me=1 / trellis=2 / 8x8dct=1 / cqm=0 / deadzone=21,11 / fast_pskip=0 / chroma_qp_offset=-3 / threads=12 / lookahead_threads=3 / sliced_threads=0 / nr=0 / decimate=1 / interlaced=0 / bluray_compat=0 / constrained_intra=0 / fgo=0 / bframes=10 / b_pyramid=2 / b_adapt=2 / b_bias=0 / direct=3 / weightb=1 / open_gop=0 / weightp=2 / keyint=240 / keyint_min=23 / scenecut=40 / intra_refresh=0 / rc=crf / mbtree=0 / crf=17.0000 / qcomp=0.60 / qpmin=0 / qpmax=69 / qpstep=4 / ip_ratio=1.40 / pb_ratio=1.30 / aq=4:0.70 / aq-sensitivity=10.00 / aq-ifactor=1.00 / aq-pfactor=1.00 / aq-bfactor=1.00 / aq2=0
Language : English
Default : Yes
Forced : No
Color primaries : BT.709
Transfer characteristics : BT.709
Matrix coefficients : BT.709
Audio #2
ID : 2
Format : AC-3
Format/Info : Audio Coding 3
Mode extension : CM (complete main)
Format settings, Endianness : Big
Codec ID : A_AC3
Duration : 1h 40mn
Bit rate mode : Constant
Bit rate : 640 Kbps
Channel(s) : 6 channels
Channel positions : Front: L C R, Side: L R, LFE
Sampling rate : 48.0 KHz
Bit depth : 16 bits
Compression mode : Lossy
Stream size : 462 MiB (4%)
Title : MVO AC3 5.1ch 640kbps
Language : Russian
Default : Yes
Forced : No
Audio #3
ID : 3
Format : AC-3
Format/Info : Audio Coding 3
Mode extension : CM (complete main)
Format settings, Endianness : Big
Codec ID : A_AC3
Duration : 1h 40mn
Bit rate mode : Constant
Bit rate : 384 Kbps
Channel(s) : 6 channels
Channel positions : Front: L C R, Side: L R, LFE
Sampling rate : 48.0 KHz
Bit depth : 16 bits
Compression mode : Lossy
Stream size : 277 MiB (2%)
Title : AVO AC3 5.1ch 384 (А.Гаврилов)
Language : Russian
Default : No
Forced : No
Audio #4
ID : 4
Format : DTS
Format/Info : Digital Theater Systems
Mode : 16
Format settings, Endianness : Big
Codec ID : A_DTS
Duration : 1h 40mn
Bit rate mode : Constant
Bit rate : 1 509 Kbps
Channel(s) : 6 channels
Channel positions : Front: L C R, Side: L R, LFE
Sampling rate : 48.0 KHz
Bit depth : 16 bits
Compression mode : Lossy
Stream size : 1.06 GiB (8%)
Title : Original DTS 5.1ch 1510kbps
Language : English
Default : No
Forced : No
Audio #5
ID : 5
Format : AC-3
Format/Info : Audio Coding 3
Format profile : Dolby Digital
Mode extension : CM (complete main)
Format settings, Endianness : Big
Codec ID : A_AC3
Duration : 1h 40mn
Bit rate mode : Constant
Bit rate : 192 Kbps
Channel(s) : 2 channels
Channel positions : Front: L R
Sampling rate : 48.0 KHz
Bit depth : 16 bits
Compression mode : Lossy
Stream size : 139 MiB (1%)
Title : AC3 2.0ch 192kbps (commentary by the director Jim Gillespie)
Language : English
Default : No
Forced : No
Text #6
ID : 6
Format : UTF-8
Codec ID : S_TEXT/UTF8
Codec ID/Info : UTF-8 Plain Text
Language : Russian
Default : No
Forced : No
Text #7
ID : 7
Format : UTF-8
Codec ID : S_TEXT/UTF8
Codec ID/Info : UTF-8 Plain Text
Language : English
Default : No
Forced : No
Text #8
ID : 8
Format : UTF-8
Codec ID : S_TEXT/UTF8
Codec ID/Info : UTF-8 Plain Text
Title : SDH
Language : English
Default : No
Forced : No
Menu
00:00:00.000 : :00:00:00.000
00:08:40.562 : :00:08:40.562
00:13:02.448 : :00:13:02.448
00:20:24.974 : :00:20:24.974
00:22:53.581 : :00:22:53.581
00:25:24.189 : :00:25:24.189
00:37:10.687 : :00:37:10.687
00:42:31.549 : :00:42:31.549
00:46:43.467 : :00:46:43.467
00:53:11.605 : :00:53:11.605
01:00:57.487 : :01:00:57.487
01:08:02.161 : :01:08:02.161
01:12:46.445 : :01:12:46.445
01:18:58.734 : :01:18:58.734
01:24:47.958 : :01:24:47.958
01:31:50.171 : :01:31:50.171

x264 log

x264 [info]: frame I:1074 Avg QP:15.49 size:228159 PSNR Mean Y:49.29 U:51.91 V:52.91 Avg:49.95 Global:49.44
x264 [info]: frame P:30586 Avg QP:16.67 size:119511 PSNR Mean Y:48.15 U:51.97 V:52.63 Avg:48.82 Global:47.97
x264 [info]: frame B:113468 Avg QP:18.78 size: 66899 PSNR Mean Y:46.59 U:49.29 V:50.91 Avg:47.21 Global:46.47
x264 [info]: consecutive B-frames: 2.0% 2.6% 8.3% 13.1% 12.7% 53.5% 5.1% 0.7% 0.9% 0.5% 0.6%
x264 [info]: mb I I16..4: 12.0% 74.5% 13.5%
x264 [info]: mb P I16..4: 2.1% 34.4% 2.3% P16..4: 18.8% 23.1% 8.3% 1.7% 0.1% skip: 9.3%
x264 [info]: mb B I16..4: 0.3% 4.7% 0.2% B16..8: 35.7% 23.1% 3.8% direct:14.5% skip:17.5% L0:41.4% L1:36.6% BI:22.0%
x264 [info]: 8x8 transform intra:88.5% inter:46.7%
x264 [info]: direct mvs spatial:100.0% temporal:0.0%
x264 [info]: coded y,uvDC,uvAC intra: 93.9% 96.0% 93.5% inter: 50.3% 63.8% 44.7%
x264 [info]: i16 v,h,dc,p: 52% 6% 7% 35%
x264 [info]: i8 v,h,dc,ddl,ddr,vr,hd,vl,hu: 10% 9% 12% 9% 11% 10% 12% 12% 14%
x264 [info]: i4 v,h,dc,ddl,ddr,vr,hd,vl,hu: 8% 9% 6% 9% 15% 13% 15% 10% 15%
x264 [info]: i8c dc,h,v,p: 66% 10% 10% 14%
x264 [info]: Weighted P-Frames: Y:97.6% UV:7.0%
x264 [info]: ref P L0: 43.6% 10.8% 26.1% 9.6% 8.8% 0.9% 0.1%
x264 [info]: ref B L0: 75.4% 18.1% 5.2% 1.3%
x264 [info]: ref B L1: 91.7% 8.3%
x264 [info]: SSIM Mean Y:0.9835018 (17.826db)
x264 [info]: PSNR Mean Y:46.942 U:49.877 V:51.286 Avg:47.566 Global:46.760 kb/s:15187.39
x264 [info]: encoded 145128 frames, 4.806 fps, 15187.39 kb/s, 10959 MB
x264 [info]: ended at Mon Apr 22 15:25:24 2013
x264 [info]: encoding duration 8:23:16
Other forum [Profile] [PM]
Display posts from previous:    
Reply to topic

The time now is: Today 06:05

All times are GMT + 3 Hours



You cannot post new topics in this forum
You cannot reply to topics in this forum
You cannot edit your posts in this forum
You cannot delete your posts in this forum
You cannot vote in polls in this forum
You cannot attach files in this forum
You cannot download files in this forum