Today is a free download without charge Download

Def Leppard - Live from Abbey Road [2008, Rock, HDTV 720p]

Reply to topic
 
Author
Message

Omen ®

Longevity: 8 years 4 months

Posts: 181087

Торрент-статистика

Post 30-Apr-2013 09:01

[Quote]

Def Leppard - Live from Abbey Road
Жанр: Rock
Продолжительность: 00:16:17
Год выпуска: 2008
Описание:
Live from Abbey Road is a documentary that began filming its first season
during 2006 at Abbey Road Studios in London.
Set List:
- Rocket
- Rock On
- C'Mon C'Mon
Качество: HDTV 720p
Контейнер: MKV
Видео кодек: H.264
Аудио кодек: AC3
Видео: H.264 1280x720 16:9 3957Kbps 29.970fps
Аудио: AC3 384kbps 48kHz 5.1ch

Отчёт MediaInfo / BDInfo

ОбщееУникальный идентификатор : 58082376765909348711327254702132599134 (0x2BB2424501D0A33845F9CB036CEC995E)Полное имя : E:\Downloads\Def.Leppard.live.from.abbey.road.hdtv.720p.mkvФормат : MatroskaВерсия формата : Version 2Размер файла : 461 МбайтПродолжительность : 16 м.Общий поток : 3957 Кбит/секПрограмма кодирования : HandBrake 0.9.8Библиотека кодирования : libmkv 0.6.5
ВидеоИдентификатор : 1Формат : AVCФормат/Информация : Advanced Video CodecПрофиль формата : [email protected]Параметр CABAC формата : ДаПараметр ReFrames формата : 4 кадраИдентификатор кодека : V_MPEG4/ISO/AVCБитрейт : 3111 Кбит/секШирина : 1280 пикселейВысота : 720 пикселейСоотношение сторон : 16:9Режим частоты кадров : ПеременныйЦветовое пространство : YUVСубдискретизация насыщенности : 4:2:0Битовая глубина : 8 битТип развёртки : ПрогрессивнаяБиблиотека кодирования : x264 core 120Настройки программы : cabac=1 / ref=3 / deblock=1:0:0 / analyse=0x3:0x113 / me=hex / subme=7 / psy=1 / psy_rd=1.00:0.00 / mixed_ref=1 / me_range=16 / chroma_me=1 / trellis=1 / 8x8dct=1 / cqm=0 / deadzone=21,11 / fast_pskip=1 / chroma_qp_offset=-2 / threads=12 / sliced_threads=0 / nr=0 / decimate=1 / interlaced=0 / bluray_compat=0 / constrained_intra=0 / bframes=3 / b_pyramid=2 / b_adapt=2 / b_bias=0 / direct=1 / weightb=1 / open_gop=0 / weightp=2 / keyint=300 / keyint_min=30 / scenecut=40 / intra_refresh=0 / rc_lookahead=50 / rc=crf / mbtree=1 / crf=20.0 / qcomp=0.60 / qpmin=3 / qpmax=69 / qpstep=4 / ip_ratio=1.40 / aq=1:1.00Язык : EnglishDefault : ДаForced : НетОсновные цвета : BT.709Характеристики трансфера : BT.709Коэффициенты матрицы : BT.709
Аудио #1Идентификатор : 2Формат : AC-3Формат/Информация : Audio Coding 3Расширение режима : CM (complete main)Параметр Endianness формата : BigИдентификатор кодека : A_AC3Продолжительность : 16 м.Вид битрейта : ПостоянныйБитрейт : 384 Кбит/секКаналы : 6 каналовРасположение каналов : Front: L C R, Side: L R, LFEЧастота : 48,0 КГцБитовая глубина : 16 битМетод сжатия : С потерямиРазмер потока : 44,8 Мбайт (10%)Язык : PortugueseDefault : ДаForced : Нет
Аудио #2Идентификатор : 3Формат : AC-3Формат/Информация : Audio Coding 3Расширение режима : CM (complete main)Параметр Endianness формата : BigИдентификатор кодека : A_AC3Продолжительность : 16 м.Вид битрейта : ПостоянныйБитрейт : 384 Кбит/секКаналы : 6 каналовРасположение каналов : Front: L C R, Side: L R, LFEЧастота : 48,0 КГцБитовая глубина : 16 битМетод сжатия : С потерямиРазмер потока : 44,8 Мбайт (10%)Язык : PortugueseDefault : НетForced : Нет

Скриншоты



Other forum [Profile] [PM]
Display posts from previous:    
Reply to topic

The time now is: Today 18:01

All times are GMT + 3 Hours



You cannot post new topics in this forum
You cannot reply to topics in this forum
You cannot edit your posts in this forum
You cannot delete your posts in this forum
You cannot vote in polls in this forum
You cannot attach files in this forum
You cannot download files in this forum