Сегодня идет свободное скачивание без начисления Download

Она защищает Родину (1943) DVD5

Ответить на тему
 
Автор
Сообщение

UndegraundMen ®

Стаж: 5 лет 9 месяцев

Сообщений: 25860

Торрент-статистика

Пост 30-Апр-2013 00:03

[Цитировать]

Она защищает Родину (1943) DVD5- Русское название: Она защищает Родину
Производство: СССР
Год выпуска: 1943
Жанр: Драма, Военный
Описание фильма:
Радостной и счастливой была жизнь Паши Лукьяновой. Но началась война. В первый же день погиб ее муж. Маленького сына растерзали гитлеровцы.
И тогда Прасковья ушла в лес, организовала партизанский отряд и начала беспощадно мстить врагу за сына, за мужа, за Родину…
Режиссер: Фридрих Эрмлер
Актеры: Вера Марецкая, Николай Боголюбов, Петр Алейников, Лидия Смирнова, Инна Федорова, Иван Пельтцер, Борис Дмоховский, Александр Виолинов, Евгений Немченко, И. Медведко ...
Продолжительность: 01:14:28
Субтитры: Отсутствуют

Видеокодек: MPEG-2
Битрейт видео: ~7838 kb/s
Размер кадра: [email protected] (PAL 4:3) VBR
Качество видео: DVD5
Аудиокодек: Dolby AC3, 2 ch
Битрейт аудио: 192 kb/s
СЭМПЛ
Дополнительные материалы: Отсутствуют

DVDInfo

Title: Она защищает Родину.1943.DVD5
Size: 4.24 Gb ( 4 446 636,00 KBytes ) - DVD-5
Enabled regions: 1, 2, 3, 4, 5, 6, 7, 8
VTS_01 :
Play Length: 01:14:28
Video: PAL 4:3 (720x576) VBR
Audio:
  • Russian (Dolby AC3, 2 ch)
    VTS_02 :
    Play Length: 00:00:00
    Video: PAL 4:3 (720x576) VBR
    VTS_03 :
    Play Length: 00:00:00
    Video: PAL 4:3 (720x576) VBR
    * Menus Information *
    VIDEO_TS Menu
    Video:
  • NTSC 4:3 (720x480) VBR
  • Auto Pan&Scan, Auto Letterboxed
    English Language Unit :
  • Title Menu
    VTS_01 Menu
    Video:
  • PAL 4:3 (720x576) VBR
  • Letterboxed
    English Language Unit :
  • Root Menu
    VTS_02 Menu
    Video:
  • NTSC 4:3 (720x480) VBR
  • Auto Pan&Scan, Auto Letterboxed
    English Language Unit :
  • Root Menu
    VTS_03 Menu
    Video:
  • NTSC 4:3 (720x480) VBR
  • Auto Pan&Scan, Auto Letterboxed
    English Language Unit :
  • Root Menu

MediaInfo

Формат : MPEG-PS
Размер файла : 1024 Мбайт
Продолжительность : 17 м.
Общий поток : 8193 Кбит/сек
Видео
Идентификатор : 224 (0xE0)
Формат : MPEG Video
Версия формата : Version 2
Профиль формата : [email protected]
Параметр BVOP формата : Да
Параметр матрицы формата : Выборочная
Параметр GOP формата : M=3, N=15
Продолжительность : 17 м.
Вид битрейта : Переменный
Битрейт : 7838 Кбит/сек
Максимальный битрейт : 8000 Кбит/сек
Ширина : 720 пикселей
Высота : 576 пикселей
Соотношение сторон : 4:3
Частота кадров : 25,000 кадров/сек
Стандарт вещания : PAL
Цветовое пространство : YUV
Субдискретизация насыщенности : 4:2:0
Битовая глубина : 8 бит
Тип развёртки : Чересстрочная
Порядок развёртки : Нижнее поле первое
Метод сжатия : С потерями
Бит/(Пиксели*Кадры) : 0.756
Размер потока : 979 Мбайт (96%)
Аудио
Идентификатор : 189 (0xBD)-128 (0x80)
Формат : AC-3
Формат/Информация : Audio Coding 3
Расширение режима : CM (complete main)
Режим смешивания : DVD-Video
Продолжительность : 17 м.
Вид битрейта : Постоянный
Битрейт : 192 Кбит/сек
Каналы : 2 канала
Расположение каналов : Front: L R
Частота : 48,0 КГц
Битовая глубина : 16 бит
Метод сжатия : С потерями
Задержка видео : -192 мс.
Размер потока : 24,0 Мбайт (2%)
Меню

Скриншоты меню

   
Скриншоты:                Время раздачи: 15:00-20:00
Вне форума [Профиль] [ЛС]
Показать сообщения:    
Ответить на тему

Текущее время: Сегодня 15:28

Часовой пояс: GMT + 3



Вы не можете начинать темы
Вы не можете отвечать на сообщения
Вы не можете редактировать свои сообщения
Вы не можете удалять свои сообщения
Вы не можете голосовать в опросах
Вы не можете прикреплять файлы к сообщениям
Вы не можете скачивать файлы