Today is a free download without charge Download

Дракон: История жизни Брюса Ли / Dragon: The Bruce Lee Story (Роб Коэн / Rob Cohen) [1993, Биографическая драма, WEB-DL 720p] MVO + AVO + Eng

Reply to topic
 
Author
Message

Omen ®

Longevity: 8 years 5 months

Posts: 181087

Торрент-статистика

Post 29-Apr-2013 00:28

[Quote]

Дракон: История жизни Брюса Ли / Dragon: The Bruce Lee Story«The Mystery. The Life. The Love. The Legend» Год выпуска: 1993
Страна: США
Жанр: Биографическая драма
Продолжительность: 01:59:48
Перевод: авторский одноголосый (В. Дохалов), профессиональный (многоголосый, закадровый)-Режиссер: Роб Коэн / Rob Cohen
Сценарий: Роберт Клауз / Robert Clouse, Линда Ли Кадвелл / Linda Lee Cadwell, Эдвард Хмара / Edward Khmara, Джон Раффо / John Raffo, Роб Коэн / Rob Cohen
Продюсер: Джон Бэдэм / John Badham, Келли Брейденбах / Kelly Breidenbach, Раффаэлла Де Лаурентис / Raffaella De Laurentiis, Хестер Харгетт / Hester Hargett, Рик Натансон / Rick Nathanson
Оператор: Дэвид Эггби / David Eggby
Композитор: Рэнди Эделмен / Randy Edelman
В ролях: Джейсон Скотт Ли (Bruce Lee,), Лорен Холли (Linda Lee), Роберт Вагнер (Bill Krieger), Майкл Лернд (Vivian Emery), Нэнси Кван (Gussie Yang), Кэй Тонг Лим (Philip Tan), Рик Янг (Bruce's Father), Luoyong Wang (Yip Man), Стерлинг Мейсер мл. (Jerome Sprout), Свен-Оле Торсен (The Demon), Джон Чунг (Johnny Sun), Онг Су Хань (Luke Sun)-Бюджет: $14 000 000
Сборы в США: $35 113 743
Сборы в мире: $63 513 743
Мировая премьера: 7 мая 1993-Описание: Биографическая драма, рассказывающая о жизни легендарного Брюса Ли, погибшего таинственным образом.
Фильм снят по воспоминаниям жены Брюса Линды Ли Колдуэлл. Создатели ленты попытались показать Ли как человека, преодолевающего препятствия, неуклонно идущего к цели.
Мистика и реальность переплетаются друг с другом, и Брюс Ли, великий «маленький дракон», вступает в бой не только с окружающей действительностью, но и с демоном преследующих его кошмаров.-Kinopoisk 7.777 (405)
IMDB 6.8 (9,889)-Качество: WEB-DL
Исходник: WEB-DL ViGi
Формат: MKV
Видеокодек: H.264
Аудиокодек: AC3
Видео: 1280x546 (2.35:1); 3 845 Kbps; 25 fps; 0.229 bpp
Аудио №1: Russian, AC3 / 2.0 / 48 KHz / 192 Kbps
Аудио №2: Russian, AC3 / 2.0 / 48 KHz / 192 Kbps В. Дохалов
Аудио №3: English; AC3 / 5.1 / 48 kHz / 384 kbps Оригинал

Знаете ли Вы, что...

  • Джейсон Скотт Ли и Лорен Холли при подготовке к фильму в течении нескольких месяцев изучали боевое искусство Джит Кун-До под руководством бывшего ученика Брюса Ли Джерри Потита.
  • Надгробие, которое видит Брюс Ли (Джейсон Скотт Ли) в сцене сражения с «Демоном», является точной копией первой настоящей надгробной плиты Брюса Ли, фотография также не отличалась от оригинала.
  • Первоначально роль Брюса Ли была предложена его сыну Брэндону Ли, который в марте 1993 года погиб во время съёмок фильма «Ворон».
  • Дочь Брюса Ли Шэннон являлась исполнительницей песни «Калифорнийские сны», в эпизоде, когда Линда объявляет Брюсу о своей второй беременности.
  • Фильм основан на романе: «Брюс Ли: человек которого знала только я», книгу написала вдова Брюса Ли - Линда.

Скриншоты


MediaInfo

Код:
General
Format : Matroska
Format version : Version 4 / Version 2
File size : 3.94 GiB
Duration : 1h 59mn
Overall bit rate : 4 706 Kbps
Movie name : Дракон: История жизни Брюса Ли / Dragon: The Bruce Lee Story [1993]
Encoded date : UTC 2013-04-28 19:18:28
Writing application : mkvmerge v6.2.0 ('Promised Land') built on Apr 28 2013 12:22:01
Writing library : libebml v1.3.0 + libmatroska v1.4.0
Video
ID : 1
Format : AVC
Format/Info : Advanced Video Codec
Format profile : [email protected]
Format settings, CABAC : No
Format settings, ReFrames : 2 frames
Codec ID : V_MPEG4/ISO/AVC
Duration : 1h 59mn
Bit rate : 3 845 Kbps
Width : 1 280 pixels
Height : 546 pixels
Display aspect ratio : 2.35:1
Frame rate mode : Constant
Frame rate : 23.976 fps
Color space : YUV
Chroma subsampling : 4:2:0
Bit depth : 8 bits
Scan type : Progressive
Bits/(Pixel*Frame) : 0.229
Stream size : 3.22 GiB (82%)
Title : ViGi
Language : English
Default : Yes
Forced : No
Color primaries : BT.709
Transfer characteristics : BT.709
Matrix coefficients : BT.709
Audio #1
ID : 2
Format : AC-3
Format/Info : Audio Coding 3
Mode extension : CM (complete main)
Format settings, Endianness : Big
Codec ID : A_AC3
Duration : 1h 59mn
Bit rate mode : Constant
Bit rate : 192 Kbps
Channel(s) : 2 channels
Channel positions : Front: L R
Sampling rate : 48.0 KHz
Bit depth : 16 bits
Compression mode : Lossy
Stream size : 165 MiB (4%)
Title : Rus MVO
Language : Russian
Default : Yes
Forced : No
Audio #2
ID : 3
Format : AC-3
Format/Info : Audio Coding 3
Mode extension : CM (complete main)
Format settings, Endianness : Big
Codec ID : A_AC3
Duration : 1h 59mn
Bit rate mode : Constant
Bit rate : 192 Kbps
Channel(s) : 2 channels
Channel positions : Front: L R
Sampling rate : 48.0 KHz
Bit depth : 16 bits
Compression mode : Lossy
Stream size : 165 MiB (4%)
Title : Rus VO - В. Дохалов
Language : Russian
Default : No
Forced : No
Audio #3
ID : 4
Format : AC-3
Format/Info : Audio Coding 3
Mode extension : CM (complete main)
Format settings, Endianness : Big
Codec ID : A_AC3
Duration : 1h 59mn
Bit rate mode : Constant
Bit rate : 384 Kbps
Channel(s) : 6 channels
Channel positions : Front: L C R, Side: L R, LFE
Sampling rate : 48.0 KHz
Bit depth : 16 bits
Compression mode : Lossy
Stream size : 330 MiB (8%)
Language : English
Default : No
Forced : No
Text
ID : 5
Format : UTF-8
Codec ID : S_TEXT/UTF8
Codec ID/Info : UTF-8 Plain Text
Language : English
Default : No
Forced : No
Menu
00:00:00.000 : en:A Father's Fear (Main Titles)
00:05:30.000 : en:Early Lessons
00:08:12.000 : en:Enter the Little Dragon
00:11:11.000 : en:A Father's Plan
00:15:05.000 : en:Swapping Sayings
00:16:46.000 : en:San Francisco 1962
00:19:56.000 : en:Circle of Iron Cleavers
00:23:46.000 : en:The Big Boss's Wisdom
00:25:56.000 : en:Jerk Jocks
00:29:08.000 : en:The Way of the Dragon
00:32:18.000 : en:Bowling?
00:35:47.000 : en:Bruce and Linda
00:37:46.000 : en:The Jun Fan Gung Fu Institute
00:41:09.000 : en:Enter the Dragon
00:47:08.000 : en:A New Life Together
00:50:03.000 : en:The Old Masters and the Gwei-Lo
00:53:15.000 : en:Fists of Fury
00:58:54.000 : en:Picking Up the Pieces
01:01:35.000 : en:The Tao of Jeet Kune Do
01:07:39.000 : en:Gramma Meets Brandon
01:10:31.000 : en:Return of the Dragon
01:12:17.000 : en:The 60-Second Man
01:17:29.000 : en:The Green Hornet
01:20:50.000 : en:Kung-Fu
01:26:21.000 : en:Home for a Funeral
01:29:34.000 : en:Hong Kong: The Chinese Connection
01:35:47.000 : en:Family Reunion
01:37:52.000 : en:The Premiere of "The Big Boss"
01:42:11.000 : en:Pearl of the Orient Studios
01:48:53.000 : en:Enter The Dragon
01:50:01.000 : en:Game of Death
01:54:39.000 : en:The Last Shot
01:56:33.000 : en:End Titles
Other forum [Profile] [PM]
Display posts from previous:    
Reply to topic

The time now is: Today 02:59

All times are GMT + 3 Hours



You cannot post new topics in this forum
You cannot reply to topics in this forum
You cannot edit your posts in this forum
You cannot delete your posts in this forum
You cannot vote in polls in this forum
You cannot attach files in this forum
You cannot download files in this forum