Today is a free download without charge Download

Oxoтники нa гaнгcтеров / Gаngstеr Squаd (Pубен Флeйшер / Rubеn Flеisсhеr) [2013, США, боевик, триллер, драма, криминал, BDRip 1080p] Dub Rus + Dub Ukr + Original Eng + Sub (Rus, Ukr, Eng)

Reply to topic
 
Author
Message

Omen ®

Longevity: 8 years 5 months

Posts: 181087

Торрент-статистика

Post 29-Apr-2013 00:28

[Quote]

Охотники на гангстеров / Gangster Squad «Ни имён. Ни закона. Ни жалости.» / «No Names. No Badges. No Mercy.» Год выпуска: 2013
Страна: США
Жанр: боевик, триллер, драма, криминал
Продолжительность: 01:52:54.809
Перевод 1: Профессиональный (дублированный) Rus
Перевод 2: Профессиональный (дублированный) Ukr
Оригинальная аудиодорожка: Английская
Субтитры: Русские (форсированные, полные, комментарии), украинские (полные), английские (SDH, комментарии)
Студия: Langley Park Productions, Lin Pictures, Village Roadshow Pictures
Режиссёр: Рубен Флейшер / Ruben Fleischer
В ролях: Джош Бролин, Райан Гослинг, Ник Нолти, Эмма Стоун, Энтони Маки, Джованни Рибизи, Майкл Пенья, Роберт Патрик, Шон Пенн, Холт МакКэллани и др.
Описание: Лос-Анджелес, 1949 год. Уроженец Бруклина, жестокий главарь банды Микки Коэн держит город в ежовых рукавицах, собирая «грязные» деньги от торговли наркотиками, оружием и проституции, и - если все пойдет, как надо, - к Западу от Чикаго мышь не пискнет без его ведома. Защищают его не только его же головорезы, но и находящиеся у него «на крючке» полиция и политики. Этого хватит, чтобы запугать даже самых смелых, закаленных улицей копов… кроме, пожалуй, небольшой тайной группы сотрудников полицейского департамента Лос-Анджелеса во главе с сержантом Джоном О’Мара и Джерри Вутерсом, которые объединились, чтобы попытаться уничтожить преступный мир Коэна.
  • Кинопоиск
  • IMDB
  • Blu-ray.com
  • Сэмпл
    Качество: BDRip 1080p Gangster.Squad.2013.1080p.BluRay.DTS.x264-HDMaNiAcS
    Контейнер: MKV
    Видео кодек: MPEG-4 AVC Video
    Аудио кодек: DTS Audio / Dolby Digital Audio
    Видео: MPEG-4 AVC Video / 11500 kbps / 1920x800p / 23,976 fps / 2.40:1 / 0.312 bit/pix / [email protected]
    Аудио 1: Русский / Dolby Digital Audio / 5.1 / 48 kHz / 640 kbps / 16-bit / Дубляж
    Аудио 2: Украинский / Dolby Digital Audio / 5.1 / 48 kHz / 640 kbps / 16-bit / Дубляж
    Аудио 3: English / DTS Audio / 5.1 / 48 kHz / 1536 kbps / 24-bit / Оригинал
    Аудио 4: English / Dolby Digital Audio / 2.0 / 48 kHz / 192 kbps / 16-bit / Комментарии
    Навигация по главам: да

Дополнительная информация

Скриншот с названием фильма

MediaInfo

C:\/*spam*/\Охотники на гангстеров (Gangster Squad) 2013, США, боевик, триллер, драма, криминал, BDRip 1080p GORESEWAGE.mkv
General
Unique ID : 187593818329707347828224128143026436146 (0x8D2141557688B7058F1FC78642923832)
Complete name : C:\/*spam*/\Охотники на гангстеров (Gangster Squad) 2013, США, боевик, триллер, драма, криминал, BDRip 1080p GORESEWAGE.mkv
Format : Matroska
Format version : Version 4 / Version 2
File size : 11.4 GiB
Duration : 1h 52mn
Overall bit rate : 14.5 Mbps
Movie name : GORESEWAGE
Encoded date : UTC 2013-04-28 18:52:27
Writing application : mkvmerge v6.1.0 ('Old Devil') built on Mar 31 2013 15:21:18
Writing library : libebml v1.3.0 + libmatroska v1.4.0
Video #1
ID : 1
Format : AVC
Format/Info : Advanced Video Codec
Format profile : [email protected]
Format settings, CABAC : Yes
Format settings, ReFrames : 5 frames
Codec ID : V_MPEG4/ISO/AVC
Bit rate : 11.5 Mbps
Width : 1 920 pixels
Height : 800 pixels
Display aspect ratio : 2.40:1
Frame rate mode : Variable
Original frame rate : 23.976 fps
Color space : YUV
Chroma subsampling : 4:2:0
Bit depth : 8 bits
Scan type : Progressive
Bits/(Pixel*Frame) : 0.312
Title : GORESEWAGE
Writing library : x264 core 130 r2273 b3065e6
Encoding settings : cabac=1 / ref=5 / deblock=1:-3:-3 / analyse=0x3:0x113 / me=tesa / subme=11 / psy=1 / psy_rd=1.05:0.00 / mixed_ref=1 / me_range=24 / chroma_me=1 / trellis=2 / 8x8dct=1 / cqm=0 / deadzone=21,11 / fast_pskip=1 / chroma_qp_offset=-2 / threads=12 / lookahead_threads=2 / sliced_threads=0 / nr=0 / decimate=1 / interlaced=0 / bluray_compat=0 / constrained_intra=0 / bframes=8 / b_pyramid=2 / b_adapt=2 / b_bias=0 / direct=3 / weightb=1 / open_gop=0 / weightp=2 / keyint=240 / keyint_min=23 / scenecut=40 / intra_refresh=0 / rc_lookahead=40 / rc=2pass / mbtree=0 / bitrate=11500 / ratetol=1.0 / qcomp=0.60 / qpmin=10 / qpmax=69 / qpstep=4 / cplxblur=20.0 / qblur=0.5 / vbv_maxrate=62500 / vbv_bufsize=78125 / nal_hrd=none / ip_ratio=1.40 / pb_ratio=1.30 / aq=2:0.55
Language : English
Default : Yes
Forced : No
Audio #2
ID : 2
Format : AC-3
Format/Info : Audio Coding 3
Mode extension : CM (complete main)
Format settings, Endianness : Big
Codec ID : A_AC3
Duration : 1h 52mn
Bit rate mode : Constant
Bit rate : 640 Kbps
Channel(s) : 6 channels
Channel positions : Front: L C R, Side: L R, LFE
Sampling rate : 48.0 KHz
Bit depth : 16 bits
Compression mode : Lossy
Stream size : 517 MiB (4%)
Title : Профессиональный (дублированный)
Language : Russian
Default : Yes
Forced : No
Audio #3
ID : 3
Format : AC-3
Format/Info : Audio Coding 3
Mode extension : CM (complete main)
Format settings, Endianness : Big
Codec ID : A_AC3
Duration : 1h 52mn
Bit rate mode : Constant
Bit rate : 640 Kbps
Channel(s) : 6 channels
Channel positions : Front: L C R, Side: L R, LFE
Sampling rate : 48.0 KHz
Bit depth : 16 bits
Compression mode : Lossy
Stream size : 517 MiB (4%)
Title : Профессиональный (дублированный)
Language : Ukrainian
Default : No
Forced : No
Audio #4
ID : 4
Format : DTS
Format/Info : Digital Theater Systems
Codec ID : A_DTS
Duration : 1h 52mn
Bit rate mode : Constant
Bit rate : 1 510 Kbps
Channel(s) : 6 channels
Channel positions : Front: L C R, Side: L R, LFE
Sampling rate : 48.0 KHz
Bit depth : 24 bits
Compression mode : Lossy
Stream size : 1.19 GiB (10%)
Title : Оригинал
Language : English
Default : No
Forced : No
Audio #5
ID : 5
Format : AC-3
Format/Info : Audio Coding 3
Format profile : Dolby Digital
Mode extension : CM (complete main)
Format settings, Endianness : Big
Codec ID : A_AC3
Duration : 1h 52mn
Bit rate mode : Constant
Bit rate : 192 Kbps
Channel(s) : 2 channels
Channel positions : Front: L R
Sampling rate : 48.0 KHz
Bit depth : 16 bits
Compression mode : Lossy
Stream size : 155 MiB (1%)
Title : Комментарии
Language : English
Default : No
Forced : No
Text #6
ID : 6
Format : UTF-8
Codec ID : S_TEXT/UTF8
Codec ID/Info : UTF-8 Plain Text
Title : Форсированные
Language : Russian
Default : Yes
Forced : No
Text #7
ID : 7
Format : UTF-8
Codec ID : S_TEXT/UTF8
Codec ID/Info : UTF-8 Plain Text
Title : Полные
Language : Russian
Default : No
Forced : No
Text #8
ID : 8
Format : UTF-8
Codec ID : S_TEXT/UTF8
Codec ID/Info : UTF-8 Plain Text
Title : Комментарии
Language : Russian
Default : No
Forced : No
Text #9
ID : 9
Format : UTF-8
Codec ID : S_TEXT/UTF8
Codec ID/Info : UTF-8 Plain Text
Title : Полные
Language : Ukrainian
Default : No
Forced : No
Text #10
ID : 10
Format : UTF-8
Codec ID : S_TEXT/UTF8
Codec ID/Info : UTF-8 Plain Text
Title : SDH
Language : English
Default : No
Forced : No
Text #11
ID : 11
Format : UTF-8
Codec ID : S_TEXT/UTF8
Codec ID/Info : UTF-8 Plain Text
Title : Комментарии
Language : English
Default : No
Forced : No
Menu
00:00:00.000 : en:00:00:00.000
00:09:53.635 : en:00:09:53.635
00:20:51.167 : en:00:20:51.167
00:28:36.173 : en:00:28:36.173
00:39:22.860 : en:00:39:22.860
00:49:25.462 : en:00:49:25.462
00:59:59.262 : en:00:59:59.262
01:09:23.493 : en:01:09:23.493
01:20:05.259 : en:01:20:05.259
01:31:01.539 : en:01:31:01.539
01:38:50.341 : en:01:38:50.341
01:44:11.370 : en:01:44:11.370

Полноразмерные постеры

Other forum [Profile] [PM]
Display posts from previous:    
Reply to topic

The time now is: Today 02:45

All times are GMT + 3 Hours



You cannot post new topics in this forum
You cannot reply to topics in this forum
You cannot edit your posts in this forum
You cannot delete your posts in this forum
You cannot vote in polls in this forum
You cannot attach files in this forum
You cannot download files in this forum