Today is a free download without charge Download

Джeк Ричep / Jасk Rеаchеr (Кpистoфep МакKуоppи / Christophеr МcQuarriе) [2012, США, Боевик, триллер, криминал, детектив, BDRip 720p] Dub + Sub Eng + Original Eng

Reply to topic
 
Author
Message

Omen ®

Longevity: 8 years 5 months

Posts: 181087

Торрент-статистика

Post 29-Apr-2013 00:28

[Quote]

-Джек Ричер / Jack Reacher-Страна: США
Студия: Paramount Pictures
Жанр: Боевик, триллер, криминал
Год выпуска: 2012
Продолжительность: 02:10:24-Перевод: Профессиональный (дублированный)
Cубтитры: Danish, English SDH, English, Spanish, Finnish, French, German, Italian, Dutch, Norwegian, Swedish, English (Commentary), русские
Оригинальная аудиодорожка: английский-Режиссер: Кристофер МакКуорри / Christopher McQuarrie
В ролях: Том Круз, Розамунд Пайк, Ричард Дженкинс, Вернер Херцог, Дэвид Ойелоуо, Роберт Дювалл, Джей Кортни, Владимир Сизов, Джозеф Сикора, Майкл Рэймонд-Джеймс-Описание: Снайпер убивает пять случайных прохожих, но все улики указывают на человека, заключенного под стражу. На допросе подозреваемый умоляет об одном — найти Джека Ричера.-Сэмпл: http://yadi.sk/d/shT6zqxw4Czzv-Тип релиза: BDRip 720p
Контейнер: MKV
Видео: MPEG 4-AVC, 5696 kbps, 1280x544 (2.35:1), 23.976 fps,
Аудио: Russian: 48 kHz, DTS, 3/2 (L,C,R,l,r) + LFE ch, ~1536.00 kbps |Дубляж|
Аудио: English: 48 kHz, DTS, 3/2 (L,C,R,l,r) + LFE ch, ~1536.00 kbps

Видеоряд от EbP

Release Information
RELEASE NAME..: Jack.Reacher.2012.720p.BluRay.x264-EbPRELEASE DATE..: Apr 19 2013RUNTiME.......: 2h 10mnSiZE..........: 6.79GiBViDEO CODEC...: x264, CRF, L4.1FRAMERATE.....: 23.976 fpsBiTRATE.......: 5696 KbpsRESOLUTiON....: 1280x544AUDiO 1.......: English DTS 5.1 @ 1509 KbpsAUDiO 2.......: Commentary w/ Christopher McQuarrie and Tom Cruise AAC2.0 @ 64 KbpsAudiO 3.......: Commentary w/ Joe Kraemer AAC2.0 @ 64 KBpsSUBTiTLES.....: Eng, Eng (SDH), Commentary w/ CM and TC, Commentary w/ JKCHAPTER.......: YesSOURCE........: Jack Reacher 2012 1080p EUR Blu-ray AVC DTS-HD MA 7.1-PCH

MI

Код:
General
Complete name                    : F:\  -= Фильмы =-\Джек Ричер (2012. Jack Reacher) 720p.mkv
Format                           : Matroska
File size                        : 8.04 GiB
Duration                         : 2h 10mn
Overall bit rate                 : 8 832 Kbps
Movie name                       : Release for RuTracker
Encoded date                     : UTC 2013-04-20 22:24:54
Writing application              : mkvmerge v4.9.1 ('Ich will') сборка от Jul 11 2011 23:53:15
Writing library                  : libebml v1.2.1 + libmatroska v1.1.1
Video
ID                               : 1
Format                           : AVC
Format/Info                      : Advanced Video Codec
Format profile                   : [email protected]
Format settings, CABAC           : Yes
Format settings, ReFrames        : 9 frames
Muxing mode                      : Container [email protected]
Codec ID                         : V_MPEG4/ISO/AVC
Duration                         : 2h 10mn
Bit rate                         : 5 637 Kbps
Width                            : 1 280 pixels
Height                           : 544 pixels
Display aspect ratio             : 2.35:1
Frame rate                       : 23.976 fps
Color space                      : YUV
Chroma subsampling               : 4:2:0
Bit depth                        : 8 bits
Scan type                        : Progressive
Bits/(Pixel*Frame)               : 0.338
Stream size                      : 5.13 GiB (64%)
Title                            : Jack.Reacher.2012.720p.BluRay.x264-EbP
Writing library                  : x264 core 130 r2273 b3065e6
Encoding settings                : cabac=1 / ref=9 / deblock=1:-3:-3 / analyse=0x3:0x133 / me=tesa / subme=10 / psy=1 / psy_rd=1.10:0.00 / mixed_ref=1 / me_range=16 / chroma_me=1 / trellis=2 / 8x8dct=1 / cqm=0 / deadzone=21,11 / fast_pskip=0 / chroma_qp_offset=-2 / threads=18 / lookahead_threads=3 / sliced_threads=0 / nr=0 / decimate=0 / interlaced=0 / bluray_compat=0 / constrained_intra=0 / bframes=9 / b_pyramid=2 / b_adapt=2 / b_bias=0 / direct=3 / weightb=1 / open_gop=0 / weightp=2 / keyint=240 / keyint_min=23 / scenecut=40 / intra_refresh=0 / rc_lookahead=240 / rc=crf / mbtree=0 / crf=16.6 / qcomp=0.60 / qpmin=0 / qpmax=69 / qpstep=4 / vbv_maxrate=62500 / vbv_bufsize=78125 / crf_max=0.0 / nal_hrd=none / ip_ratio=1.40 / pb_ratio=1.30 / aq=2:0.80
Language                         : English
Audio #1
ID                               : 2
Format                           : DTS
Format/Info                      : Digital Theater Systems
Codec ID                         : A_DTS
Duration                         : 2h 10mn
Bit rate mode                    : Constant
Bit rate                         : 1 510 Kbps
Channel(s)                       : 6 channels
Channel positions                : Front: L C R, Side: L R, LFE
Sampling rate                    : 48.0 KHz
Bit depth                        : 24 bits
Stream size                      : 1.38 GiB (17%)
Title                            : DTS 5.1 @ 1536 kbps - DUB, Paramount Pictures
Language                         : Russian
Audio #2
ID                               : 3
Format                           : DTS
Format/Info                      : Digital Theater Systems
Codec ID                         : A_DTS
Duration                         : 2h 10mn
Bit rate mode                    : Constant
Bit rate                         : 1 510 Kbps
Channel(s)                       : 6 channels
Channel positions                : Front: L C R, Side: L R, LFE
Sampling rate                    : 48.0 KHz
Bit depth                        : 24 bits
Video delay                      : 11ms
Stream size                      : 1.38 GiB (17%)
Title                            : DTS 5.1 @ 1536 kbps
Language                         : English
Text #1
ID                               : 4
Format                           : UTF-8
Codec ID                         : S_TEXT/UTF8
Codec ID/Info                    : UTF-8 Plain Text
Title                            : Full
Language                         : English
Text #2
ID                               : 5
Format                           : UTF-8
Codec ID                         : S_TEXT/UTF8
Codec ID/Info                    : UTF-8 Plain Text
Title                            : SDH
Language                         : English
Text #3
ID                               : 6
Format                           : UTF-8
Codec ID                         : S_TEXT/UTF8
Codec ID/Info                    : UTF-8 Plain Text
Title                            : SDH-COLORED
Language                         : English
Text #4
ID                               : 7
Format                           : UTF-8
Codec ID                         : S_TEXT/UTF8
Codec ID/Info                    : UTF-8 Plain Text
Title                            : Commentary by director Christopher McQuarrie and actor Tom Cruise
Language                         : English
Text #5
ID                               : 8
Format                           : UTF-8
Codec ID                         : S_TEXT/UTF8
Codec ID/Info                    : UTF-8 Plain Text
Title                            : Commentary by composer Jack Kraemer
Language                         : English
Text #6
ID                               : 9
Format                           : UTF-8
Codec ID                         : S_TEXT/UTF8
Codec ID/Info                    : UTF-8 Plain Text
Language                         : German
Text #7
ID                               : 10
Format                           : UTF-8
Codec ID                         : S_TEXT/UTF8
Codec ID/Info                    : UTF-8 Plain Text
Language                         : Spanish
Text #8
ID                               : 11
Format                           : UTF-8
Codec ID                         : S_TEXT/UTF8
Codec ID/Info                    : UTF-8 Plain Text
Language                         : Italian
Text #9
ID                               : 12
Format                           : UTF-8
Codec ID                         : S_TEXT/UTF8
Codec ID/Info                    : UTF-8 Plain Text
Language                         : Finnish
Text #10
ID                               : 13
Format                           : UTF-8
Codec ID                         : S_TEXT/UTF8
Codec ID/Info                    : UTF-8 Plain Text
Language                         : Danish
Text #11
ID                               : 14
Format                           : UTF-8
Codec ID                         : S_TEXT/UTF8
Codec ID/Info                    : UTF-8 Plain Text
Language                         : English
Text #12
ID                               : 15
Format                           : UTF-8
Codec ID                         : S_TEXT/UTF8
Codec ID/Info                    : UTF-8 Plain Text
Language                         : Swedish
Text #13
ID                               : 16
Format                           : UTF-8
Codec ID                         : S_TEXT/UTF8
Codec ID/Info                    : UTF-8 Plain Text
Language                         : French
Text #14
ID                               : 17
Format                           : UTF-8
Codec ID                         : S_TEXT/UTF8
Codec ID/Info                    : UTF-8 Plain Text
Language                         : Norwegian
Text #15
ID                               : 18
Format                           : UTF-8
Codec ID                         : S_TEXT/UTF8
Codec ID/Info                    : UTF-8 Plain Text
Language                         : Dutch
Menu
00:00:00.000                     : en:00:00:00.000
00:08:21.668                     : en:00:08:21.668
00:14:19.901                     : en:00:14:19.901
00:21:51.685                     : en:00:21:51.685
00:30:02.342                     : en:00:30:02.342
00:35:46.478                     : en:00:35:46.478
00:41:22.980                     : en:00:41:22.980
00:49:08.112                     : en:00:49:08.112
00:55:36.291                     : en:00:55:36.291
01:01:44.117                     : en:01:01:44.117
01:08:11.296                     : en:01:08:11.296
01:16:56.320                     : en:01:16:56.320
01:23:51.526                     : en:01:23:51.526
01:30:20.165                     : en:01:30:20.165
01:38:01.584                     : en:01:38:01.584
01:45:08.928                     : en:01:45:08.928
01:53:39.312                     : en:01:53:39.312
02:01:50.470                     : en:02:01:50.470

Скриншоты

SOURCE______________________________________ENCODE_____________________________________AMIABLE



Other forum [Profile] [PM]
Display posts from previous:    
Reply to topic

The time now is: Today 23:19

All times are GMT + 3 Hours



You cannot post new topics in this forum
You cannot reply to topics in this forum
You cannot edit your posts in this forum
You cannot delete your posts in this forum
You cannot vote in polls in this forum
You cannot attach files in this forum
You cannot download files in this forum