Today is a free download without charge Download

Discovery: Аппараты Да Винчи / Da Vinci\'s Machines (2009) HDTVRip [H.264/720p] (10 серий из 10)

Reply to topic
 
Author
Message

UndegraundMen ®

Longevity: 7 years 7 months

Posts: 25145

Торрент-статистика

Post 29-Apr-2013 00:03

[Quote]

Discovery: Аппараты Да Винчи / Da Vinci's Machines (2009) HDTVRip [H.264/720p] (10 серий из 10)- Русское название: Discovery: Аппараты Да Винчи
Оригинальное название: Da Vinci's Machines
Страна: США
Режиссер / Телекомпания: Саул Фридман / Piligrim films and television for Discovery Channel
Год выпуска: 2009
Жанр: документальный, научно-популярный
Описание: Леонардо да Винчи, человек эпохи возрождения - ученый, художник, создатель военной техники. Его революционные для его времени военные проекты были способны нанести необычайные разрушения. Они были самым современным оружием того времени, однако нет доказательств, что они даже были построены когда-либо. Для Вас подобрана команда из четырех экспериментаторов. Эти эксперты подвергнут испытаниям планы мастера XV века, используя материалы эпохи да Винчи.
Продолжительность: 10 x ~00:43:00
Перевод: Одноголосый закадровый (профессиональный)
Видеокодек: MPEG-4 AVC/H.264
Битрейт видео: ~4 000 Кбит/с
Размер кадра: 1280 x 720
Качество видео: HDTVRip [720p]
Аудиокодек: АС3, 5.1 channels
Битрейт аудио: 384 Кбит/с

Содержание:

Серия 01. Танк / Armored Tank

Скриншоты:
         

Серия 02. Колесница-коса/ Scythed Chariot

Скриншоты:
         

Серия 03. Самоходные тележки / Self Propelled Carts

Скриншоты:
         

Серия 04. Катапульта / Catapult

Скриншоты:
         

Серия 05. Воздушный винт / Air Screw

Скриншоты:
         

Серия 06. Скорострельный арбалет / Speed crossbow

Скриншоты:
         

Серия 07. Двухзарядная катапульта / Doubly charged catapult

Скриншоты:
         

Серия 08. Пушка / Gun

Скриншоты:
         

Серия 09. Пулемет / Machine gun

Скриншоты:
         

Серия 10. Штурмовая лестница / Siege Ladder

Скриншоты:
         
Скриншоты:
         
         

MediaInfo (параметры всех серий идентичны)

Общее
Уникальный идентификатор : 249603181105341743090607805016607494479 (0xBBC7D2F648ECE2EB816DDF23141F114F)
Полное имя : A:\Релизы\Discovery.Da.Vinchi.Machines(10.iz.10).2009.x264.HDTV.720p\Da.Vinchi.Machines.(01.iz.10).Bronirovannyj.tank.2009.x264.HDTV.720p.mkv
Формат : Matroska
Версия формата : Version 2
Размер файла : 1,34 Гбайт
Продолжительность : 43 м.
Общий поток : 4386 Кбит/сек
Дата кодирования : UTC 2010-07-04 19:02:27
Программа кодирования : mkvmerge v4.1.1 ('Bouncin' Back') built on Jul 3 2010 22:54:08
Библиотека кодирования : libebml v1.0.0 + libmatroska v1.0.0
Видео
Идентификатор : 1
Формат : AVC
Формат/Информация : Advanced Video Codec
Профиль формата : [url=mailto:[email protected]][email protected][/url]
Параметр CABAC формата : Да
Параметр ReFrames формата : 3 кадра
Идентификатор кодека : V_MPEG4/ISO/AVC
Продолжительность : 43 м.
Битрейт : 4000 Кбит/сек
Ширина : 1280 пикселей
Высота : 720 пикселей
Соотношение сторон : 16:9
Частота кадров : 25,000 кадров/сек
Цветовое пространство : YUV
Субдискретизация насыщенности : 4:2:0
Битовая глубина : 8 бит
Тип развёртки : Прогрессивная
Бит/(Пиксели*Кадры) : 0.174
Размер потока : 1,20 Гбайт (89%)
Библиотека кодирования : x264 core 98 r1649 c54c47d
Настройки программы : cabac=1 / ref=3 / deblock=1:0:0 / analyse=0x3:0x113 / me=hex / subme=7 / psy=1 / psy_rd=1.00:0.00 / mixed_ref=1 / me_range=16 / chroma_me=1 / trellis=1 / 8x8dct=1 / cqm=0 / deadzone=21,11 / fast_pskip=1 / chroma_qp_offset=-2 / threads=4 / sliced_threads=0 / slices=4 / nr=0 / decimate=1 / interlaced=0 / constrained_intra=0 / bframes=2 / b_pyramid=1 / b_adapt=2 / b_bias=0 / direct=1 / weightb=1 / weightp=2 / keyint=24 / keyint_min=2 / scenecut=40 / intra_refresh=0 / rc_lookahead=25 / rc=2pass / mbtree=1 / bitrate=4000 / ratetol=1.0 / qcomp=0.60 / qpmin=10 / qpmax=51 / qpstep=4 / cplxblur=20.0 / qblur=0.5 / vbv_maxrate=14000 / vbv_bufsize=14500 / ip_ratio=1.40 / aq=1:1.00 / nal_hrd=none
Язык : English
Default : Да
Forced : Нет
Аудио
Идентификатор : 2
Формат : AC-3
Формат/Информация : Audio Coding 3
Расширение режима : CM (complete main)
Параметр Endianness формата : Big
Режим смешивания : Header stripping
Идентификатор кодека : A_AC3
Продолжительность : 43 м.
Вид битрейта : Постоянный
Битрейт : 384 Кбит/сек
Каналы : 6 каналов
Расположение каналов : Front: L C R, Side: L R, LFE
Частота : 48,0 КГц
Битовая глубина : 16 бит
Метод сжатия : С потерями
Размер потока : 120 Мбайт (9%)
Заголовок : Russian 5.1 AC3
Язык : Russian
Default : Да
Forced : Нет
Пожалуйста, не уходите с раздачи - помогите докачать другим. Если понравился релиз - жмите кнопку "Спасибо"!
Время раздачи: 24 / 7
Other forum [Profile] [PM]
Display posts from previous:    
Reply to topic

The time now is: Today 09:28

All times are GMT + 3 Hours



You cannot post new topics in this forum
You cannot reply to topics in this forum
You cannot edit your posts in this forum
You cannot delete your posts in this forum
You cannot vote in polls in this forum
You cannot attach files in this forum
You cannot download files in this forum