Today is a free download without charge Download

Discovery: Механизмы организма / The Body Machine (2008) HDTVRip [H.264/720p]

Reply to topic
 
Author
Message

UndegraundMen ®

Longevity: 7 years 7 months

Posts: 25145

Торрент-статистика

Post 29-Apr-2013 00:03

[Quote]

Discovery: Механизмы организма / The Body Machine (2008) HDTVRip [H.264/720p]- Русское название: Discovery: Механизмы организма
Оригинальное название: The Body Machine
Страна: Канада
Режиссер / Телекомпания: Робин Бикнелл / Body Mashine Productions Inc. при участии Discovery Channel Canada, Canal D, Canadian Television Fund
Год выпуска: 2008
Жанр: документальный, научно-популярный
Описание: Мы любим свои машины - они работают за нас: перевозят, доставляют нам удовольствие. С каждым поколением они становятся быстрее, умнее и хитроумнее. Но как мы смотрим на них, так и они смотрят на нас! Потому что нет машины сложнее той, что скрыта под нашей кожей. Мы рассмотрим, как работает человеческий организм. Причем так подробно, как до сих пор это не делал никто... Нам откроется смысл каждой клетки крови, каждого слова, моргания, чиханья и сна, тайная жизнь единственной в своем роде машины - машины тела.
Продолжительность: 01:30:50
Перевод: Одноголосый закадровый (профессиональный)
Видеокодек: MPEG-4 AVC/H.264
Битрейт видео: ~ 4 000 Кбит/с
Размер кадра: 1280x720
Качество видео: HDTVRip [720p]
Аудио:
1. [русский] AC3, 2 ch, 384 Кбит/с
2. [english] AC3, 2 ch, 384 Кбит/с

MediaInfo

Общее
Уникальный идентификатор : 188989075552010582796345651296825132653 (0x8E2DF8D3782E8A6DB674E419D01A466D)
Полное имя : A:\Релизы\Discovery.The.Body.Machine.(2008)HDTVRip.720p.mkv
Формат : Matroska
Версия формата : Version 2
Размер файла : 3,03 Гбайт
Продолжительность : 1 ч. 30 м.
Общий поток : 4772 Кбит/сек
Дата кодирования : UTC 2010-03-31 14:38:19
Программа кодирования : mkvmerge v3.2.0 ('Beginnings') built on Feb 12 2010 16:46:17
Библиотека кодирования : libebml v0.7.9 + libmatroska v0.8.1
Видео
Идентификатор : 1
Формат : AVC
Формат/Информация : Advanced Video Codec
Профиль формата : [url=mailto:[email protected]][email protected][/url]
Параметр CABAC формата : Да
Параметр ReFrames формата : 8 кадров
Идентификатор кодека : V_MPEG4/ISO/AVC
Продолжительность : 1 ч. 30 м.
Битрейт : 4000 Кбит/сек
Ширина : 1280 пикселей
Высота : 720 пикселей
Соотношение сторон : 16:9
Частота кадров : 29,970 кадров/сек
Цветовое пространство : YUV
Субдискретизация насыщенности : 4:2:0
Битовая глубина : 8 бит
Тип развёртки : Прогрессивная
Бит/(Пиксели*Кадры) : 0.145
Размер потока : 2,48 Гбайт (82%)
Библиотека кодирования : x264 core 67 r1139M 1024283
Настройки программы : cabac=1 / ref=8 / deblock=1:-3:-3 / analyse=0x3:0x113 / me=umh / subme=7 / psy_rd=1.0:0.0 / mixed_ref=1 / me_range=30 / chroma_me=1 / trellis=1 / 8x8dct=1 / cqm=2 / deadzone=21,11 / chroma_qp_offset=-2 / threads=6 / nr=0 / decimate=1 / mbaff=0 / bframes=5 / b_pyramid=1 / b_adapt=2 / b_bias=0 / direct=1 / wpredb=1 / keyint=250 / keyint_min=25 / scenecut=40 / rc=2pass / bitrate=4000 / ratetol=7.0 / qcomp=0.60 / qpmin=10 / qpmax=51 / qpstep=4 / cplxblur=20.0 / qblur=0.5 / ip_ratio=1.40 / pb_ratio=1.30 / aq=1:1.05
Язык : English
Default : Да
Forced : Нет
Аудио #1
Идентификатор : 2
Формат : AC-3
Формат/Информация : Audio Coding 3
Расширение режима : CM (complete main)
Параметр Endianness формата : Big
Идентификатор кодека : A_AC3
Продолжительность : 1 ч. 30 м.
Вид битрейта : Постоянный
Битрейт : 384 Кбит/сек
Каналы : 2 канала
Расположение каналов : Front: L R
Частота : 48,0 КГц
Битовая глубина : 16 бит
Метод сжатия : С потерями
Размер потока : 250 Мбайт (8%)
Заголовок : mexanizmy.organizma_by_nyctalus
Язык : Russian
Default : Да
Forced : Да
Аудио #2
Идентификатор : 3
Формат : AC-3
Формат/Информация : Audio Coding 3
Расширение режима : CM (complete main)
Параметр Endianness формата : Big
Идентификатор кодека : A_AC3
Продолжительность : 1 ч. 30 м.
Вид битрейта : Постоянный
Битрейт : 384 Кбит/сек
Каналы : 2 канала
Расположение каналов : Front: L R
Частота : 48,0 КГц
Битовая глубина : 16 бит
Метод сжатия : С потерями
Размер потока : 250 Мбайт (8%)
Заголовок : the.body.machine
Язык : English
Default : Нет
Forced : Нет
Скриншоты:
         
         
Пожалуйста, не уходите с раздачи - помогите докачать другим. Если понравился релиз - жмите кнопку "Спасибо"!
Время раздачи: 24 / 7
Other forum [Profile] [PM]
Display posts from previous:    
Reply to topic

The time now is: Today 17:56

All times are GMT + 3 Hours



You cannot post new topics in this forum
You cannot reply to topics in this forum
You cannot edit your posts in this forum
You cannot delete your posts in this forum
You cannot vote in polls in this forum
You cannot attach files in this forum
You cannot download files in this forum