Сегодня идет свободное скачивание без начисления Download

Семья Ульяновых (1957) DVDRip

Ответить на тему
 
Автор
Сообщение

UndegraundMen ®

Стаж: 5 лет 7 месяцев

Сообщений: 25860

Торрент-статистика

Пост 29-Апр-2013 00:03

[Цитировать]

Семья Ульяновых (1957) DVDRip- Русское название: Семья Ульяновых
Год выпуска: 1957
Жанр: История, Биография
Описание фильма:
Биографическая киноповесть по пьесе И. Попова «Семья». О юношеских годах В.И. Ленина, о его становлении как политика, о выводах, сделанных на примере деятельности казненного старшего брата. О матери, борющейся за смягчение приговора сыну Александру и не пожелавшей уговорить его выдать своих товарищей.
Режиссер: Валентин Невзоров
Актеры: Софья Гиацинтова, Владимир Коровин, Феликс Яворский, Любовь Соколова, Нина Крачковская, Боря Бурляев, Ира Калягина, Афанасий Кочетков, Елена Кузьмина, Владимир Гуляев, Иван Кузнецов, Николай Прокопович, Николай Свободин, Владимир Муравьев, Александр Шатов
Продолжительность: 01:18:00

Видеокодек: DivX 5
Битрейт видео: ~2300 Кбит/сек
Размер кадра: 704х528
Качество видео: DVDRip
Аудиокодек: MP3, 2ch
Битрейт аудио: 192 Кбит/сек

MediaInfo:

Общее
Полное имя : Семья Ульновых.avi
Формат : AVI
Формат/Информация : Audio Video Interleave
Размер файла : 1,37 Гбайт
Продолжительность : 1 ч. 18 м.
Общий поток : 2502 Кбит/сек
Программа кодирования : VirtualDubModRus 1.5.10.2 (build 2542/release)
Библиотека кодирования : VirtualDubMod build 2542/release
Видео
Идентификатор : 0
Формат : MPEG-4 Visual
Параметр BVOP формата : 1
Параметр QPel формата : Нет
Параметр GMC формата : Без точки перехода
Параметр матрицы формата : Default (H.263)
Режим смешивания : Сжатый битовый поток
Идентификатор кодека : DX50
Идентификатор кодека/Подсказка : DivX 5
Продолжительность : 1 ч. 18 м.
Битрейт : 2300 Кбит/сек
Ширина : 704 пикселя
Высота : 528 пикселей
Соотношение сторон : 4:3
Частота кадров : 25,000 кадров/сек
Цветовое пространство : YUV
Субдискретизация насыщенности : 4:2:0
Битовая глубина : 8 бит
Тип развёртки : Прогрессивная
Метод сжатия : С потерями
Бит/(Пиксели*Кадры) : 0.248
Размер потока : 1,26 Гбайт (92%)
Библиотека кодирования : DivX 6.8.3-6.8.4 (UTC 2008-06-07)
Аудио
Идентификатор : 1
Формат : MPEG Audio
Версия формата : Version 1
Профиль формата : Layer 3
Режим : Joint stereo
Расширение режима : MS Stereo
Идентификатор кодека : 55
Идентификатор кодека/Подсказка : MP3
Продолжительность : 1 ч. 18 м.
Вид битрейта : Постоянный
Битрейт : 192 Кбит/сек
Каналы : 2 канала
Частота : 48,0 КГц
Метод сжатия : С потерями
Размер потока : 107 Мбайт (8%)
Выравнивание : Соединение по промежуткам
Продолжительность промежутка : 40 мс. (1,00 видеокадр)
Время предзагрузки промежутка : 504 мс.
Библиотека кодирования : LAME3.97
Настройки программы : -m j -V 4 -q 1 -b 192
Скриншоты:
         
         
Время раздачи: 24/7 По возможности
Вне форума [Профиль] [ЛС]
Показать сообщения:    
Ответить на тему

Текущее время: Сегодня 20:37

Часовой пояс: GMT + 3



Вы не можете начинать темы
Вы не можете отвечать на сообщения
Вы не можете редактировать свои сообщения
Вы не можете удалять свои сообщения
Вы не можете голосовать в опросах
Вы не можете прикреплять файлы к сообщениям
Вы не можете скачивать файлы