Today is a free download without charge Download

Находчивый крестьянин / Հնարամիտ Գյուղացին (Роберт Саакянц) [1984, мультфильм, DVDRip] Dub

Reply to topic
 
Author
Message

Omen ®

Longevity: 7 years 11 months

Posts: 181087

Торрент-статистика

Post 28-Apr-2013 16:22

[Quote]

Находчивый крестьянин
Страна: СССР / Арменфильм
Жанр: мультфильм
Продолжительность: 00:06:51
Год выпуска: 1984
Перевод: Профессиональный (дублированный)
Русские субтитры: нет
Режиссёр: Роберт Саакянц
Роли озвучивали: Гарри Бардин
Описание: Народная притча о находчивом крестьянине, излечившем царя от плохого аппетита.
Доп. информация: Видео взято из интернета , конкретно с ютубе , обрезаны черные полосы, произведена настройка цветовой гаммы, отдельные благодарности отходят к deodead за русскую дорожку к мультфильму, которая тоже была подкоректированна.
Качество: DVDRip
Формат: AVI
Видео: 640х480 (4:3),25 fps, 770 Kbps
Аудио: MP3 44100Hz , stereo 2 ch, 192 Кбит/сек
Субтитры: отсутствуют( если будет надо кому нибудь ,могу сделать)

Подробные технические данные

Complete name : C:\Documents and Settings\Тимон\Мои документы\Downloads\Находчивый крестьянин (1984) Rus+Arm.aviFormat : AVIFormat/Info : Audio Video InterleaveFile size : 47.8 MiBDuration : 6mn 51sOverall bit rate : 974 Kbps
VideoID : 0Format : xvidCodec ID : xvidDuration : 6mn 51sBit rate : 770 KbpsWidth : 640 pixelsHeight : 480 pixelsDisplay aspect ratio : 4:3Frame rate : 25.000 fpsBits/(Pixel*Frame) : 0.100Stream size : 37.8 MiB (79%)
AudioID : 1Format : MPEG AudioFormat version : Version 1Format profile : Layer 3Mode : Joint stereoMode extension : MS StereoCodec ID : 55Codec ID/Hint : MP3Duration : 6mn 51sBit rate mode : ConstantBit rate : 192 KbpsChannel(s) : 2 channelsSampling rate : 44.1 KHzCompression mode : LossyStream size : 9.42 MiB (20%)Alignment : Aligned on interleavesInterleave, duration : 26 ms (0.65 video frame)Interleave, preload duration : 52 msWriting library : LAME3.98.2

Скриншоты

Other forum [Profile] [PM]
Display posts from previous:    
Reply to topic

The time now is: Today 10:59

All times are GMT + 3 Hours



You cannot post new topics in this forum
You cannot reply to topics in this forum
You cannot edit your posts in this forum
You cannot delete your posts in this forum
You cannot vote in polls in this forum
You cannot attach files in this forum
You cannot download files in this forum