Today is a free download without charge Download

Что творят мужчины! (Сарик Андреасян) [2013, комедия, BDRip 720p]

Reply to topic
 
Author
Message

Omen ®

Longevity: 8 years 10 months

Posts: 181086

Торрент-статистика

Post 28-Apr-2013 12:18

[Quote]

Что творят мужчины
Страна: Россия
Студия: Enjoy Movies, Renovatio ent.
Жанр: комедия
Год выпуска: 2013
Продолжительность: 01:26:36
Субтитры: нет
Навигация по главам: есть
Режиссер: Сарик Андреасян
В ролях: Таир Мамедов, Роман Юнусов, Константин Крюков, Гавриил Гордеев, Равшана Куркова, Анна Хилькевич, Кристина Асмус, Наталия Медведева, Екатерина Скулкина, Даша Астафьева, Дмитрий Нагиев, Андрей Федорцов, Виктория Таранец, Алексей Лихницкий, Андрей Свиридов, Михаил Крылов, Михаил Павлик, Зарина Мухитдинова, Валентина Колесникова, Варвара Третьякова, Глеб Сердюков, Александра Сабирова, Вячеслав Барковский, Владимир Шишкин, Александр Соловьев, Алена Тимченко, Гульнара Саитова, Михаил Кротевич, Ольга Белоусова, Елена Кочеткова, Алла Данилова, Мария Данилова, Иван Руденко, Денис Коржов, Ксения Архангелова, Кларисса Барская, Роза Ларичева, Татьяна Ольховатова, Сергей Самохин, Янина Когут
Описание: Неприступные женщины, полмиллиона долларов и четверо героев которым предстоит принять участие в игре «Секс-лото», организованное экстравагантным миллионером. Суть игры — за пять дней соблазнить как можно больше женщин на морском курорте. Получив задания, великолепная четверка бросается в бой. Но все цели совсем не простые — бабушка, жена олигарха, девственница, феминистка, сектантка — и приз получит только лучший. Каждый применит свой фирменный арсенал, и все будут близки к тому, чтобы получить заветный куш, записав новых жертв в список своих мужских побед. Но неожиданно в «дело секса» вмешается любовь.

Релиз: fanatus
Качество видео: BDRip 720p
Исходник: Blu-Ray (1080p)
Контейнер: MKV
Видео: MPEG-4 AVC, 4000 kbps , 1280x578 (2.20:1), 24.000 fps, 0.225 bit/pixel
Аудио: DTS, 6 ch, 48 kHz, 1510 kbps

MediaInfo

General
Unique ID : 220160498980107772636634051758300756246 (0xA5A15EA84F49C5A4BE2983E920AA7916)
Complete name : D:\Chto.tvorjat.muzhchiny.2013.x264.BDRip.720p.fanatus.mkv
Format : Matroska
Format version : Version 2
File size : 3.33 GiB
Duration : 1h 26mn
Overall bit rate : 5 506 Kbps
Movie name : Chto tvoryat muzhchiny (2013) - fanatus
Encoded date : UTC 2013-04-28 04:55:30
Writing application : mkvmerge v3.4.0 ('Rapunzel') сборка от May 15 2010 09:38:20
Writing library : libebml v0.8.0 + libmatroska v0.9.0
Video
ID : 1
Format : AVC
Format/Info : Advanced Video Codec
Format profile : [email protected]
Format settings, CABAC : Yes
Format settings, ReFrames : 10 frames
Codec ID : V_MPEG4/ISO/AVC
Duration : 1h 26mn
Bit rate : 4 000 Kbps
Width : 1 280 pixels
Height : 578 pixels
Display aspect ratio : 2.2:1
Frame rate : 24.000 fps
Color space : YUV
Chroma subsampling : 4:2:0
Bit depth : 8 bits
Scan type : Progressive
Bits/(Pixel*Frame) : 0.225
Stream size : 2.35 GiB (71%)
Title : Chto tvoryat muzhchiny (2013)
Writing library : x264 core 130 r2273 b3065e6
Encoding settings : cabac=1 / ref=10 / deblock=1:-3:-3 / analyse=0x3:0x113 / me=umh / subme=11 / psy=1 / psy_rd=0.95:0.05 / mixed_ref=1 / me_range=48 / chroma_me=1 / trellis=2 / 8x8dct=1 / cqm=0 / deadzone=21,11 / fast_pskip=0 / chroma_qp_offset=-3 / threads=16 / lookahead_threads=4 / sliced_threads=0 / nr=0 / decimate=0 / interlaced=0 / bluray_compat=0 / constrained_intra=0 / bframes=10 / b_pyramid=2 / b_adapt=2 / b_bias=0 / direct=3 / weightb=1 / open_gop=0 / weightp=2 / keyint=240 / keyint_min=24 / scenecut=40 / intra_refresh=0 / rc_lookahead=240 / rc=2pass / mbtree=0 / bitrate=4000 / ratetol=1.0 / qcomp=0.70 / qpmin=0 / qpmax=69 / qpstep=4 / cplxblur=20.0 / qblur=0.5 / vbv_maxrate=50000 / vbv_bufsize=62500 / nal_hrd=none / ip_ratio=1.40 / pb_ratio=1.30 / aq=1:0.90
Language : Russian
Default : Yes
Forced : No
Color primaries : BT.709-5, BT.1361, IEC 61966-2-4, SMPTE RP177
Transfer characteristics : BT.709-5, BT.1361
Matrix coefficients : BT.709-5, BT.1361, IEC 61966-2-4 709, SMPTE RP177
Audio
ID : 2
Format : DTS
Format/Info : Digital Theater Systems
Codec ID : A_DTS
Duration : 1h 26mn
Bit rate mode : Constant
Bit rate : 1 510 Kbps
Channel(s) : 6 channels
Channel positions : Front: L C R, Side: L R, LFE
Sampling rate : 48.0 KHz
Bit depth : 16 bits
Compression mode : Lossy
Stream size : 935 MiB (27%)
Title : Original
Language : Russian
Default : Yes
Forced : No
Menu
00:00:00.000 : ru:Chapter 00
00:05:04.333 : ru:Chapter 01
00:10:08.833 : ru:Chapter 02
00:16:56.625 : ru:Chapter 03
00:23:02.833 : ru:Chapter 04
00:32:08.583 : ru:Chapter 05
00:38:21.125 : ru:Chapter 06
00:45:30.750 : ru:Chapter 07
00:55:24.916 : ru:Chapter 08
01:03:07.750 : ru:Chapter 09
01:08:40.000 : ru:Chapter 10
01:15:34.583 : ru:Chapter 11

x264 [info]

---[NoImage] raw [info]: 1280x578p 1:1 @ 24/1 fps (cfr)
---[NoImage] x264 [info]: using SAR=1/1
---[NoImage] x264 [info]: using cpu capabilities: MMX2 SSE2Fast SSEMisalign LZCNT
---[NoImage] x264 [info]: profile High, level 4.1
---[NoImage]
---[NoImage] x264 [info]: frame I:1495 Avg QP:12.99 size:106514
---[NoImage] x264 [info]: frame P:32264 Avg QP:16.04 size: 38540
---[NoImage] x264 [info]: frame B:90955 Avg QP:17.94 size: 13107
---[NoImage] x264 [info]: consecutive B-frames: 4.2% 5.2% 11.3% 33.0% 19.5% 23.4% 2.3% 0.6% 0.3% 0.1% 0.2%
---[NoImage] x264 [info]: mb I I16..4: 12.8% 56.0% 31.1%
---[NoImage] x264 [info]: mb P I16..4: 2.3% 15.4% 3.5% P16..4: 28.7% 30.3% 11.6% 0.0% 0.0% skip: 8.2%
---[NoImage] x264 [info]: mb B I16..4: 0.7% 2.5% 0.5% B16..8: 30.1% 20.6% 3.9% direct: 6.4% skip:35.3% L0:41.7% L1:41.7% BI:16.6%
---[NoImage] x264 [info]: 8x8 transform intra:68.8% inter:57.2%
---[NoImage] x264 [info]: direct mvs spatial:98.3% temporal:1.7%
---[NoImage] x264 [info]: coded y,uvDC,uvAC intra: 71.5% 79.4% 68.8% inter: 22.2% 31.0% 16.7%
---[NoImage] x264 [info]: i16 v,h,dc,p: 40% 22% 6% 31%
---[NoImage] x264 [info]: i8 v,h,dc,ddl,ddr,vr,hd,vl,hu: 16% 14% 13% 7% 9% 9% 10% 10% 12%
---[NoImage] x264 [info]: i4 v,h,dc,ddl,ddr,vr,hd,vl,hu: 30% 14% 15% 5% 8% 8% 7% 6% 7%
---[NoImage] x264 [info]: i8c dc,h,v,p: 33% 35% 20% 12%
---[NoImage] x264 [info]: Weighted P-Frames: Y:1.0% UV:0.5%
---[NoImage] x264 [info]: ref P L0: 49.1% 10.0% 16.6% 6.3% 5.3% 3.8% 3.2% 1.9% 1.7% 1.7% 0.3% 0.0%
---[NoImage] x264 [info]: ref B L0: 74.4% 11.4% 5.3% 2.9% 2.1% 1.6% 1.3% 0.6% 0.3%
---[NoImage] x264 [info]: ref B L1: 93.1% 6.9%
---[NoImage] x264 [info]: kb/s:3994.86
---[NoImage] encoded 124714 frames, 9.28 fps, 3994.86 kb/s

Скриншот c названием фильма

Other forum [Profile] [PM]
Display posts from previous:    
Reply to topic

The time now is: Today 12:26

All times are GMT + 3 Hours



You cannot post new topics in this forum
You cannot reply to topics in this forum
You cannot edit your posts in this forum
You cannot delete your posts in this forum
You cannot vote in polls in this forum
You cannot attach files in this forum
You cannot download files in this forum