Today is a free download without charge Download

Город порока / Broken City (Аллен Хьюз / Allen Hughes) [2013, США, Триллер, драма, криминал, BDRip] MVO + Sub Eng + Original Eng

Reply to topic
 
Author
Message

Omen ®

Longevity: 8 years 5 months

Posts: 181087

Торрент-статистика

Post 28-Apr-2013 08:10

[Quote]

Город порока / Broken City«Proof Can Be a Powerful Weapon.» Страна: США
Жанр: Триллер, драма, криминал
Год выпуска: 2013
Продолжительность: 01:48:40-Перевод: Профессиональный (многоголосый закадровый) [MVO*]
Cубтитры: английские
Оригинальная аудиодорожка: английский-Режиссер: Аллен Хьюз / Allen Hughes
В ролях: Марк Уолберг, Расселл Кроу, Кэтрин Зета-Джонс, Бэрри Пеппер, Кайл Чандлер, Натали Мартинез, Джеффри Райт, Алона Тал, Майкл Бич, Джеймс Рэнсон
Описание: История бывшего полицейского Билли Таггерта. Восемь лет назад он стрелял в 16-летнего подростка, за что был уволен из полиции. Теперь Таггерт работает частным детективом, которого нанимает мэр, чтобы тот разузнал, не изменяет ли ему жена. Однако расследование адюльтера супруги мэра выливается в настоящий скандал. Человек, с которым жена мэра изменяла мужу, убит, а на поверхность всплывает нехорошая история с недвижимостью.-Сэмпл | kinopoisk | imdb-Качество видео: BDRip720p [CHD]
Формат видео: MKV-Видео: AVC, 1280x532, 2.35:1, 23.976 fps, 5667 Kbps
Аудио: DTS, 48.0 KHz, 24 bits, 1509 Kbps, 6 channels Front (L C R) Side (L R) [MVO*]
Аудио: DTS, 48.0 KHz, 24 bits, 1509 Kbps, 6 channels Front (L C R) Side (L R) [Original]
Формат субтитров: softsub (SRT)
Сохранены оригинальные чаптеры как на Blu-ray
Спасибо & О Великий Админ
Цитата:
* Получен из псевдо-дубляжа, "гуляющего" в сети: на поверку слышна оригинальная речь в тылах и фронтах, причем это все "задавлено" (видимо в попытке скрыть) по самые немогу. Псевдо он еще и по причине озвучки другими актерами, нежели будет на лицензии (хотя, субъективно, голоса на слух воспринимаются хорошо).

MediaInfo

General
Unique ID : 230109780848470623466150180297975396916 (0xAD1D88205348E2FB87CE9B22027DFA34)
Complete name : D:\Downloads\broken.city.2013.720p.dts.mkv
Format : Matroska
Format version : Version 4 / Version 2
File size : 6.60 GiB
Duration : 1h 48mn
Overall bit rate : 8 694 Kbps
Encoded date : UTC 2013-04-27 20:43:24
Writing application : mkvmerge v6.1.0 ('Old Devil') built on Mar 2 2013 14:32:37
Writing library : libebml v1.3.0 + libmatroska v1.4.0
Attachment : Yes
Video
ID : 1
Format : AVC
Format/Info : Advanced Video Codec
Format profile : [email protected]
Format settings, CABAC : Yes
Format settings, ReFrames : 5 frames
Codec ID : V_MPEG4/ISO/AVC
Duration : 1h 48mn
Bit rate : 5 667 Kbps
Width : 1 280 pixels
Height : 532 pixels
Display aspect ratio : 2.40:1
Frame rate mode : Constant
Frame rate : 23.976 fps
Color space : YUV
Chroma subsampling : 4:2:0
Bit depth : 8 bits
Scan type : Progressive
Bits/(Pixel*Frame) : 0.347
Stream size : 4.18 GiB (63%)
Writing library : x264 core 130 r2273 b3065e6
Encoding settings : cabac=1 / ref=5 / deblock=1:0:0 / analyse=0x3:0x113 / me=umh / subme=7 / psy=1 / psy_rd=1.00:0.00 / mixed_ref=1 / me_range=16 / chroma_me=1 / trellis=1 / 8x8dct=1 / cqm=0 / deadzone=21,11 / fast_pskip=1 / chroma_qp_offset=-2 / threads=18 / lookahead_threads=3 / sliced_threads=0 / nr=0 / decimate=1 / interlaced=0 / bluray_compat=0 / constrained_intra=0 / bframes=3 / b_pyramid=2 / b_adapt=1 / b_bias=0 / direct=3 / weightb=1 / open_gop=0 / weightp=2 / keyint=240 / keyint_min=23 / scenecut=40 / intra_refresh=0 / rc_lookahead=50 / rc=abr / mbtree=1 / bitrate=5667 / ratetol=1.0 / qcomp=0.60 / qpmin=0 / qpmax=69 / qpstep=4 / ip_ratio=1.40 / aq=1:1.00
Language : English
Default : Yes
Forced : No
Audio #1
ID : 2
Format : DTS
Format/Info : Digital Theater Systems
Mode : 16
Format settings, Endianness : Big
Codec ID : A_DTS
Duration : 1h 48mn
Bit rate mode : Constant
Bit rate : 1 509 Kbps
Channel(s) : 6 channels
Channel positions : Front: L C R, Side: L R, LFE
Sampling rate : 48.0 KHz
Bit depth : 16 bits
Compression mode : Lossy
Stream size : 1.15 GiB (17%)
Title : DTS 1510 5.1 MVO
Language : Russian
Default : Yes
Forced : No
Audio #2
ID : 3
Format : DTS
Format/Info : Digital Theater Systems
Mode : 16
Format settings, Endianness : Big
Codec ID : A_DTS
Duration : 1h 48mn
Bit rate mode : Constant
Bit rate : 1 509 Kbps
Channel(s) : 6 channels
Channel positions : Front: L C R, Side: L R, LFE
Sampling rate : 48.0 KHz
Bit depth : 24 bits
Compression mode : Lossy
Stream size : 1.15 GiB (17%)
Title : DTS 1510 5.1 Original
Language : English
Default : No
Forced : No
Text
ID : 4
Format : UTF-8
Codec ID : S_TEXT/UTF8
Codec ID/Info : UTF-8 Plain Text
Language : English
Default : No
Forced : No
Menu
00:00:00.000 : en:00:00:00.000
00:07:27.447 : en:00:07:27.447
00:14:28.326 : en:00:14:28.326
00:20:49.123 : en:00:20:49.123
00:29:02.157 : en:00:29:02.157
00:34:05.460 : en:00:34:05.460
00:40:37.518 : en:00:40:37.518
00:46:11.686 : en:00:46:11.686
00:52:03.370 : en:00:52:03.370
01:00:58.572 : en:01:00:58.572
01:08:01.619 : en:01:08:01.619
01:14:20.873 : en:01:14:20.873
01:23:21.121 : en:01:23:21.121
01:28:38.021 : en:01:28:38.021
01:35:52.163 : en:01:35:52.163
01:42:36.525 : en:01:42:36.525

Скриншоты

Other forum [Profile] [PM]
Similar theme
Forum Topic Author Torrent Replies Last Post
./templates/default/images/folder_dl.gif Приключения и квесты Small Town Terrors 3 Galdors Bluff Sammleredition / Террор в городке 3 Блеф Галдора Коллекционное издание [P] [RUS] (2015) Omen
1 | 0

0 | 2350

24

2015-06-13 15:00
Omen Latest
Display posts from previous:    
Reply to topic

The time now is: Today 05:48

All times are GMT + 3 Hours



You cannot post new topics in this forum
You cannot reply to topics in this forum
You cannot edit your posts in this forum
You cannot delete your posts in this forum
You cannot vote in polls in this forum
You cannot attach files in this forum
You cannot download files in this forum