Сегодня идет свободное скачивание без начисления Download

Почтовый роман (2 серии) (1969) VHSRip

Ответить на тему
 
Автор
Сообщение

UndegraundMen ®

Стаж: 5 лет 7 месяцев

Сообщений: 25860

Торрент-статистика

Пост 28-Апр-2013 00:06

[Цитировать]

Почтовый роман (1969) VHSRip- Русское название: Почтовый роман
Год выпуска: 1969
Жанр: Драма, биографический
Производство: Студия Довженко
Описание фильма:
Фильм посвящен революционеру-демократу, лейтенанту Петру Шмидту. В основе сюжета - история сложных взаимоотношений между ним и Зинаидой Ризберг, с которой он переписывался после случайного знакомства в поезде.
Режиссер: Евгений Матвеев
Актеры: Александр Парра, Светлана Коркошко, Юрий Каюров, Анатолий Фалькович, Евгений Матвеев, Аркадий Гашинский, Антонина Максимова, Гурген Тонунц, Николай Граббе, Юрий Лавров, Геннадий Юдин, Павел Винник, Светлана Нагорная, Иван Бондарь, Виктор Маляревич, Юрий Дубровин, Александр Лебедев, Марина Юрасова, Валентин Черняк, Георгий Бабенко, Анатолий Барчук, Федор Гладков, Леонид Данчишин, Борис Заволокин, Софья Карамаш, Геннадий Юхтин
Продолжительность: 01:03:40 + 01:06:02

Видеокодек: Xvid
Битрейт видео: ~2300 kb/s
Размер кадра: 720 x 384
Качество видео: VHSRip
Аудиокодек: MP3 2.0
Битрейт аудио: 192 kb/s

Техданные

1 серия

Общее
Полное имя : \Почтовый роман.1969.VHSRip\Почтовый роман 1 серия.avi
Формат : AVI
Формат/Информация : Audio Video Interleave
Размер файла : 1,14 Гбайт
Продолжительность : 1 ч. 3 м.
Общий поток : 2564 Кбит/сек
Библиотека кодирования : VirtualDub build 31953/release
Видео
Идентификатор : 0
Формат : MPEG-4 Visual
Профиль формата : Advanced [email protected]
Параметр BVOP формата : 2
Параметр QPel формата : Нет
Параметр GMC формата : Без точки перехода
Параметр матрицы формата : Default (MPEG)
Режим смешивания : Сжатый битовый поток
Идентификатор кодека : XVID
Идентификатор кодека/Подсказка : XviD
Продолжительность : 1 ч. 3 м.
Битрейт : 2363 Кбит/сек
Ширина : 720 пикселей
Высота : 384 пикселя
Соотношение сторон : 1,85:1
Частота кадров : 25,000 кадров/сек
Цветовое пространство : YUV
Субдискретизация насыщенности : 4:2:0
Битовая глубина : 8 бит
Тип развёртки : Прогрессивная
Метод сжатия : С потерями
Бит/(Пиксели*Кадры) : 0.342
Размер потока : 1,05 Гбайт (92%)
Библиотека кодирования : XviD 64
Аудио
Идентификатор : 1
Формат : MPEG Audio
Версия формата : Version 1
Профиль формата : Layer 3
Режим : Joint stereo
Идентификатор кодека : 55
Идентификатор кодека/Подсказка : MP3
Продолжительность : 1 ч. 3 м.
Вид битрейта : Постоянный
Битрейт : 192 Кбит/сек
Каналы : 2 канала
Частота : 48,0 КГц
Метод сжатия : С потерями
Размер потока : 87,5 Мбайт (7%)
Выравнивание : Разделение по промежуткам
Продолжительность промежутка : 40 мс. (1,00 видеокадр)
Время предзагрузки промежутка : 500 мс.

2 серия

Общее
Полное имя : \Почтовый роман.1969.VHSRip\Почтовый роман 2 серия.avi
Формат : AVI
Формат/Информация : Audio Video Interleave
Размер файла : 1,08 Гбайт
Продолжительность : 1 ч. 6 м.
Общий поток : 2337 Кбит/сек
Библиотека кодирования : VirtualDub build 31953/release
Видео
Идентификатор : 0
Формат : MPEG-4 Visual
Профиль формата : Advanced [email protected]
Параметр BVOP формата : 2
Параметр QPel формата : Нет
Параметр GMC формата : Без точки перехода
Параметр матрицы формата : Default (MPEG)
Режим смешивания : Сжатый битовый поток
Идентификатор кодека : XVID
Идентификатор кодека/Подсказка : XviD
Продолжительность : 1 ч. 6 м.
Битрейт : 2136 Кбит/сек
Ширина : 720 пикселей
Высота : 384 пикселя
Соотношение сторон : 1,85:1
Частота кадров : 25,000 кадров/сек
Цветовое пространство : YUV
Субдискретизация насыщенности : 4:2:0
Битовая глубина : 8 бит
Тип развёртки : Прогрессивная
Метод сжатия : С потерями
Бит/(Пиксели*Кадры) : 0.309
Размер потока : 1009 Мбайт (91%)
Библиотека кодирования : XviD 64
Аудио
Идентификатор : 1
Формат : MPEG Audio
Версия формата : Version 1
Профиль формата : Layer 3
Режим : Joint stereo
Идентификатор кодека : 55
Идентификатор кодека/Подсказка : MP3
Продолжительность : 1 ч. 6 м.
Вид битрейта : Постоянный
Битрейт : 192 Кбит/сек
Каналы : 2 канала
Частота : 48,0 КГц
Метод сжатия : С потерями
Размер потока : 90,7 Мбайт (8%)
Выравнивание : Разделение по промежуткам
Продолжительность промежутка : 40 мс. (1,00 видеокадр)
Время предзагрузки промежутка : 500 мс.
Кадры:          Время раздачи: С 13:00 до 21:00 (до 5 скачавших)Приятного просмотра!
Вне форума [Профиль] [ЛС]
Похожие темы
Форум Тема Автор Торрент Отв. Посл. сообщение
./templates/default/images/folder_dl.gif Обучающее видео Специалист | Рудь И. | Администратор корпоративной почтовой системы Microsoft Exchange Server 2013/2016 (2016) PCRec Omen
2 | 0

0 | 1491

55

2016-03-09 18:45
Omen Последнее
Показать сообщения:    
Ответить на тему

Текущее время: Сегодня 06:43

Часовой пояс: GMT + 3



Вы не можете начинать темы
Вы не можете отвечать на сообщения
Вы не можете редактировать свои сообщения
Вы не можете удалять свои сообщения
Вы не можете голосовать в опросах
Вы не можете прикреплять файлы к сообщениям
Вы не можете скачивать файлы